#VERSION:0.83;
#TITLE:MANIC;
#SUBTITLE:;
#ARTIST:Dancing Monkeys Project;
#TITLETRANSLIT:;
#SUBTITLETRANSLIT:;
#ARTISTTRANSLIT:;
#GENRE:;
#ORIGIN:;
#CREDIT:Gorilla v1.1.3 (Dancing Monkeys v1.06);
#BANNER:download.png;
#BACKGROUND:maxresdefault (1).png;
#PREVIEWVID:;
#JACKET:;
#CDIMAGE:;
#DISCIMAGE:;
#LYRICSPATH:;
#CDTITLE:;
#MUSIC:onlymp3.to - Magnolia Park 408 Manic -7lk2FRpccRM-192k-1696849294.mp3;
#OFFSET:-0.462625;
#SAMPLESTART:31.662624;
#SAMPLELENGTH:12.000000;
#SELECTABLE:YES;
#BPMS:0.000=200.000;
#STOPS:;
#DELAYS:;
#WARPS:;
#TIMESIGNATURES:0.000=4=4;
#TICKCOUNTS:0.000=4;
#COMBOS:0.000=1;
#SPEEDS:0.000=0.800=0.000=0;
#SCROLLS:0.000=1.000;
#FAKES:;
#LABELS:0.000=Song Start;
#BGCHANGES:;
#KEYSOUNDS:;
#ATTACKS:
;

//---------------dance-single - Basic----------------
#NOTEDATA:;
#CHARTNAME:Basic;
#STEPSTYPE:dance-single;
#DESCRIPTION:Basic;
#CHARTSTYLE:;
#DIFFICULTY:Easy;
#METER:7;
#RADARVALUES:0.229757,0.202822,0.000000,0.000000,0.000000,169.000000,169.000000,0.000000,0.000000,0.000000,0.000000,0.000000,0.000000,0.000000,0.229757,0.202822,0.000000,0.000000,0.000000,169.000000,169.000000,0.000000,0.000000,0.000000,0.000000,0.000000,0.000000,0.000000;
#CREDIT:Basic;
#NOTES:
// measure 0
0001
0000
0010
0000
,  // measure 1
1000
0000
0100
0000
,  // measure 2
0001
0000
0100
0000
,  // measure 3
0001
0000
1000
0000
,  // measure 4
0001
0000
1000
0000
,  // measure 5
1000
0000
0001
0000
,  // measure 6
0001
0000
1000
0000
,  // measure 7
0001
0000
1000
0000
,  // measure 8
0000
0010
0000
0001
,  // measure 9
0000
0100
0000
0010
,  // measure 10
0000
0100
0000
0010
,  // measure 11
0000
0100
0000
0010
,  // measure 12
0000
0010
0000
0001
,  // measure 13
0000
0100
0000
0010
,  // measure 14
0000
0001
0000
0010
,  // measure 15
0000
0010
0000
0100
,  // measure 16
0000
0100
0000
1000
,  // measure 17
0000
0100
0000
1000
,  // measure 18
0000
0100
0000
0010
,  // measure 19
0000
1000
0000
0100
,  // measure 20
0000
0001
0000
1000
,  // measure 21
0000
0100
0000
0010
,  // measure 22
0000
1000
0000
0100
,  // measure 23
0000
0001
0000
0010
,  // measure 24
0000
1000
0000
0100
,  // measure 25
0000
1000
0000
0001
,  // measure 26
0000
1000
0000
0001
,  // measure 27
0000
1000
0000
0001
,  // measure 28
0000
0010
0000
1000
,  // measure 29
0000
1000
0000
0001
,  // measure 30
0000
0010
0000
0001
,  // measure 31
0000
0010
0000
1000
,  // measure 32
0000
0100
0000
0010
,  // measure 33
0000
1000
0000
0001
,  // measure 34
0000
0010
0000
1000
,  // measure 35
0000
0100
0000
0001
,  // measure 36
0000
0010
0000
0100
,  // measure 37
0000
0000
0001
0000
,  // measure 38
0100
0000
1000
0000
,  // measure 39
0001
0000
0100
0000
,  // measure 40
0001
0000
0010
0000
,  // measure 41
0001
0000
0100
0000
,  // measure 42
1000
0000
0010
0000
,  // measure 43
1000
0000
0010
0000
,  // measure 44
0001
0000
0010
0000
,  // measure 45
1000
0000
0010
0000
,  // measure 46
0001
0000
0010
0000
,  // measure 47
0010
0000
0010
0000
,  // measure 48
0001
0000
0001
0000
,  // measure 49
0001
0000
1000
0000
,  // measure 50
0010
0000
0100
0000
,  // measure 51
0100
0000
0100
0000
,  // measure 52
1000
0000
0010
0000
,  // measure 53
1000
0000
0010
0000
,  // measure 54
1000
0000
0010
0000
,  // measure 55
0001
0000
0100
0000
,  // measure 56
1000
0000
0010
0000
,  // measure 57
0001
0000
1000
0000
,  // measure 58
0010
0000
0001
0000
,  // measure 59
1000
0000
0000
0000
,  // measure 60
0000
0001
0000
1000
,  // measure 61
0000
0010
0000
0100
,  // measure 62
0000
0010
0000
1000
,  // measure 63
0000
0010
0000
0100
,  // measure 64
0000
0010
0000
0001
,  // measure 65
0000
0100
0000
0010
,  // measure 66
0000
0001
0000
0010
,  // measure 67
0000
1000
0000
0010
,  // measure 68
0000
0001
0000
0100
,  // measure 69
0000
1000
0000
0010
,  // measure 70
0000
0100
0000
0001
,  // measure 71
0000
0010
0000
1000
,  // measure 72
0000
0100
0000
0010
,  // measure 73
0000
1000
0000
0100
,  // measure 74
0000
0001
0000
0010
,  // measure 75
0000
0100
0000
0010
,  // measure 76
0000
1000
0000
0100
,  // measure 77
0000
0001
0000
0010
,  // measure 78
0000
0100
0000
1000
,  // measure 79
0000
0100
0000
0010
,  // measure 80
0000
0001
0000
0010
,  // measure 81
0000
0100
0000
1000
,  // measure 82
0000
0100
0000
0010
,  // measure 83
0000
0001
0000
0010
,  // measure 84
0000
1000
0000
0010
,  // measure 85
0000
0100
0000
0000
;
