#VERSION:0.83;
#TITLE:Man In Law;
#SUBTITLE:;
#ARTIST:Bahamas;
#TITLETRANSLIT:;
#SUBTITLETRANSLIT:;
#ARTISTTRANSLIT:;
#GENRE:;
#ORIGIN:;
#CREDIT:;
#BANNER:bahamas_flag_wallpaper_by_m0osegirlhunter_daxwpqb-fullview.png;
#BACKGROUND:Nas-1st_Black_Govern_mon.png;
#PREVIEWVID:;
#JACKET:;
#CDIMAGE:;
#DISCIMAGE:;
#LYRICSPATH:;
#CDTITLE:;
#MUSIC:MAN IN LAW.mp3;
#OFFSET:0.000000;
#SAMPLESTART:100.000000;
#SAMPLELENGTH:12.000000;
#SELECTABLE:YES;
#BPMS:0.000=136.340;
#STOPS:;
#DELAYS:;
#WARPS:;
#TIMESIGNATURES:0.000=4=4;
#TICKCOUNTS:0.000=4;
#COMBOS:0.000=1;
#SPEEDS:0.000=1.000=0.000=0;
#SCROLLS:0.000=1.000;
#FAKES:;
#LABELS:0.000=Song Start;
#BGCHANGES:;
#KEYSOUNDS:;
#ATTACKS:
;

//---------------dance-single - ----------------
#NOTEDATA:;
#CHARTNAME:;
#STEPSTYPE:dance-single;
#DESCRIPTION:;
#CHARTSTYLE:;
#DIFFICULTY:Easy;
#METER:1;
#RADARVALUES:0.088238,0.086567,0.000000,0.023397,0.000000,132.000000,132.000000,0.000000,5.000000,0.000000,0.000000,0.000000,0.000000,0.000000,0.088238,0.086567,0.000000,0.023397,0.000000,132.000000,132.000000,0.000000,5.000000,0.000000,0.000000,0.000000,0.000000,0.000000;
#CREDIT:;
#NOTES:
// measure 0
0000
0000
0000
0000
,  // measure 1
0000
0000
0000
0000
,  // measure 2
0000
0000
0000
1000
,  // measure 3
0000
0000
0000
0001
,  // measure 4
0000
0000
0001
0000
,  // measure 5
0010
0000
1000
0000
,  // measure 6
0010
0000
0100
0000
,  // measure 7
1000
0000
0010
0000
,  // measure 8
0100
0000
1000
0000
,  // measure 9
0010
0000
0100
0000
,  // measure 10
0010
0000
1000
0000
,  // measure 11
0100
0000
1000
0000
,  // measure 12
0010
0000
0100
0000
,  // measure 13
0010
0000
0001
0000
,  // measure 14
0010
0000
0001
0000
,  // measure 15
0010
0000
1000
0000
,  // measure 16
0010
0000
0100
0000
,  // measure 17
1000
0000
0100
0000
,  // measure 18
0010
0000
0100
0000
,  // measure 19
0100
0000
1000
0000
,  // measure 20
1000
0000
1000
0000
,  // measure 21
0001
0000
0010
0000
,  // measure 22
0100
0000
0010
0000
,  // measure 23
1000
0000
0010
0000
,  // measure 24
0100
0000
1000
0000
,  // measure 25
0100
0000
0010
0000
,  // measure 26
0001
0000
0010
0000
,  // measure 27
0100
0000
1000
0000
,  // measure 28
0010
0000
0100
0000
,  // measure 29
1000
0000
0010
0000
,  // measure 30
0100
0000
1000
0000
,  // measure 31
0010
0000
0100
0000
,  // measure 32
2000
0000
0000
0000
,  // measure 33
3000
0000
0010
0000
,  // measure 34
0001
0000
0010
0000
,  // measure 35
1000
0000
0010
0000
,  // measure 36
0100
0000
1000
0000
,  // measure 37
0100
0000
0010
0000
,  // measure 38
0100
0000
1000
0000
,  // measure 39
0010
0000
0100
0000
,  // measure 40
0001
0000
1000
0000
,  // measure 41
0010
0000
0100
0000
,  // measure 42
1000
0000
0010
0000
,  // measure 43
0100
0000
0001
0000
,  // measure 44
0010
0000
1000
0000
,  // measure 45
0010
0000
0100
0000
,  // measure 46
1000
0000
0010
0000
,  // measure 47
0100
0000
1000
0000
,  // measure 48
0010
0000
0100
0000
,  // measure 49
1000
0000
0010
0000
,  // measure 50
0100
0000
1000
0000
,  // measure 51
0100
0000
0010
0000
,  // measure 52
0001
0000
0010
0000
,  // measure 53
1000
0000
0010
0000
,  // measure 54
0100
0000
1000
0000
,  // measure 55
0010
0000
0100
0000
,  // measure 56
0001
0000
0010
0000
,  // measure 57
1000
0000
0010
0000
,  // measure 58
0100
0000
1000
0000
,  // measure 59
0010
0000
0200
0000
,  // measure 60
0000
0000
0300
0000
,  // measure 61
0100
0000
1000
0000
,  // measure 62
0010
0000
0100
0000
,  // measure 63
0001
0000
0010
0000
,  // measure 64
1000
0000
0100
0000
,  // measure 65
0010
0000
1000
0000
,  // measure 66
0010
0000
0100
0000
,  // measure 67
0002
0000
0000
0000
,  // measure 68
0003
0000
0010
0000
,  // measure 69
0100
0000
1000
0000
,  // measure 70
0000
2000
0000
0000
,  // measure 71
3000
0000
1000
0000
,  // measure 72
0010
0000
0100
0000
,  // measure 73
0002
0000
0000
0000
,  // measure 74
0003
0000
0000
0000
;
