#VERSION:0.83;
#TITLE:Loser, Baby;
#SUBTITLE:Hazbin Hotel;
#ARTIST:Hazbin Hotel;
#TITLETRANSLIT:;
#SUBTITLETRANSLIT:;
#ARTISTTRANSLIT:;
#GENRE:;
#ORIGIN:;
#CREDIT:Gorilla v1.1.3 (Dancing Monkeys v1.06);
#BANNER:;
#BACKGROUND:;
#PREVIEWVID:;
#JACKET:;
#CDIMAGE:;
#DISCIMAGE:;
#LYRICSPATH:;
#CDTITLE:;
#MUSIC:Loser, Baby.mp3;
#OFFSET:-0.898594;
#SAMPLESTART:41.807438;
#SAMPLELENGTH:12.000000;
#SELECTABLE:YES;
#BPMS:0.000=132.000;
#STOPS:;
#DELAYS:;
#WARPS:;
#TIMESIGNATURES:0.000=4=4;
#TICKCOUNTS:0.000=4;
#COMBOS:0.000=1;
#SPEEDS:0.000=1.000=0.000=0;
#SCROLLS:0.000=1.000;
#FAKES:;
#LABELS:0.000=Song Start;
#BGCHANGES:;
#KEYSOUNDS:;
#ATTACKS:
;

//---------------dance-single - Basic----------------
#NOTEDATA:;
#CHARTNAME:;
#STEPSTYPE:dance-single;
#DESCRIPTION:Basic;
#CHARTSTYLE:;
#DIFFICULTY:Easy;
#METER:3;
#RADARVALUES:0.126189,0.133385,0.000000,0.077371,0.000000,137.000000,137.000000,0.000000,12.000000,0.000000,0.000000,0.000000,0.000000,0.000000,0.126189,0.133385,0.000000,0.077371,0.000000,137.000000,137.000000,0.000000,12.000000,0.000000,0.000000,0.000000,0.000000,0.000000;
#CREDIT:;
#NOTES:
1000
0000
0020
0000
,
0030
0000
1000
0000
,
0000
0001
0000
0001
,
0000
0010
0000
1000
,
1000
0000
0000
0000
,
0000
1000
0000
0000
,
0001
0000
0010
0000
,
1000
0000
0020
0000
,
0000
0030
0000
0002
,
0000
0003
0000
1000
,
0010
0000
0010
0000
,
2000
0000
0000
0000
,
3000
0000
0010
0000
,
0000
0001
0000
0001
,
2000
0000
0000
0000
,
3000
0000
0000
0020
,
0000
0000
0000
0030
,
0000
0000
2000
0000
,
0000
3000
0000
0010
,
0000
0000
2000
0000
,
3000
0000
0010
0010
,
0000
0000
0000
0000
,
0010
0000
1000
0000
,
0001
0000
0010
0000
,
1000
0000
0010
0000
,
0100
0000
0001
0000
,
0010
0000
1000
0000
,
0010
0000
0100
0000
,
0001
0000
0010
0000
,
1000
0000
0010
0000
,
0100
0000
0001
0000
,
0001
0000
0010
0000
,
1000
0000
0010
0000
,
0100
0000
0000
0000
,
1000
0000
0000
0010
,
0000
0000
1000
0000
,
0000
0001
0000
0000
,
0010
0000
0000
0100
,
0000
0000
1000
0000
,
0000
0010
0000
0000
,
1000
0000
0000
0100
,
0000
0000
0001
0000
,
0000
1000
0000
0000
,
0010
0000
0000
1000
,
0000
0000
1000
0000
,
0000
0010
0000
0000
,
0001
0000
0000
1000
,
0000
0000
0001
0010
,
0020
0000
0030
0000
,
1000
1000
0000
0010
,
0010
0000
0002
0000
,
0000
0003
0000
0000
,
1000
0000
0010
0000
,
0100
0000
0001
0000
,
0010
0000
1000
0000
,
0010
0000
0100
0000
,
1000
0000
0010
0000
,
0100
0000
0001
0000
,
0010
0000
1000
0000
,
0010
0000
0100
0000
,
0001
0000
0010
0000
,
0001
0000
0010
0000
,
1000
0000
0010
0000
,
0100
0000
1000
0000
,
0010
0000
0100
0000
,
1000
0000
0010
0000
,
1000
0000
0010
0000
,
0100
0000
0001
0000
,
0010
0000
1000
0000
,
0010
0000
0100
0000
,
0001
0000
0010
0000
,
1000
0000
0010
0000
,
0100
0000
0001
0000
,
0010
0000
1000
0000
,
0010
0000
0100
0000
,
1000
0000
0010
0000
,
0200
0000
0000
0300
,
0000
0000
0100
0000
,
0001
0001
0000
0000
,
1000
0000
0010
0000
,
0100
0000
1000
0000
,
0010
0000
0100
0000
,
0002
0003
0000
0001
;
