#TITLE:Looking For the Perfect Beat;
#SUBTITLE:;
#ARTIST:Afreika Bambaataa & SoulSonic Force;
#TITLETRANSLIT:;
#SUBTITLETRANSLIT:;
#ARTISTTRANSLIT:;
#GENRE:;
#CREDIT:Gorilla v1.1.3 (Dancing Monkeys v1.06);
#BANNER:;
#BACKGROUND:;
#LYRICSPATH:;
#CDTITLE:;
#MUSIC:Afrika Bambaataa & Soulsonic Force - Looking for the Perfect Beat.mp3;
#OFFSET:-1.838685;
#SAMPLESTART:54.520226;
#SAMPLELENGTH:12.000000;
#SELECTABLE:YES;
#BPMS:0.000000=118.447556
;
#STOPS:
;
#BGCHANGES:;
#KEYSOUNDS:;
#ATTACKS:;

//---------------dance-single - Basic----------------
#NOTES:
     dance-single:
     Basic:
     Easy:
     3:
     0.133861,0.165801,0.000000,0.006941,0.000000,135.000000,135.000000,0.000000,1.000000,0.000000,0.000000,0.133861,0.165801,0.000000,0.006941,0.000000,135.000000,135.000000,0.000000,1.000000,0.000000,0.000000:
// measure 0
1000
0000
0000
0000
,  // measure 1
0001
0000
0000
0000
,  // measure 2
1000
0000
0010
0000
,  // measure 3
1000
0000
0001
0000
,  // measure 4
1000
0000
0010
0000
,  // measure 5
1000
0000
0001
0000
,  // measure 6
0001
0000
0100
0000
,  // measure 7
1000
0000
0001
0000
,  // measure 8
1000
0000
0010
0000
,  // measure 9
1000
0000
0010
0000
,  // measure 10
0001
0000
0010
0000
,  // measure 11
1000
0000
1000
0000
,  // measure 12
0001
0000
0001
0000
,  // measure 13
1000
0000
0010
0000
,  // measure 14
0001
0000
0010
0000
,  // measure 15
0100
0000
1000
0000
,  // measure 16
0010
0000
0100
0000
,  // measure 17
1000
0000
0010
0000
,  // measure 18
1000
0000
0001
0000
,  // measure 19
1000
0000
0001
0000
,  // measure 20
0010
0000
1000
0000
,  // measure 21
0001
0000
1000
0000
,  // measure 22
0010
0000
1000
0000
,  // measure 23
0010
0000
0100
0000
,  // measure 24
0001
0000
1000
0000
,  // measure 25
0001
0000
0100
0000
,  // measure 26
1000
0000
0100
0000
,  // measure 27
0001
0000
1000
0000
,  // measure 28
0001
0000
0001
0000
,  // measure 29
1000
0000
1000
0000
,  // measure 30
0001
0000
0100
0000
,  // measure 31
0001
0000
1000
0000
,  // measure 32
0001
0000
0010
0000
,  // measure 33
0001
0000
0100
0000
,  // measure 34
0001
0000
0100
0000
,  // measure 35
0010
0000
0001
0000
,  // measure 36
1000
0000
0100
0000
,  // measure 37
0001
0000
0010
0000
,  // measure 38
1000
0000
0010
0000
,  // measure 39
0001
0000
0010
0000
,  // measure 40
1000
0000
0010
0000
,  // measure 41
0001
0000
0010
0000
,  // measure 42
1000
0000
0010
0000
,  // measure 43
1000
0000
0010
0000
,  // measure 44
1000
0000
0010
0000
,  // measure 45
0001
0000
0100
0000
,  // measure 46
0001
0000
1000
0000
,  // measure 47
0010
0000
0100
0000
,  // measure 48
1000
0000
0001
0000
,  // measure 49
0100
0000
0010
0000
,  // measure 50
0001
0000
0100
0000
,  // measure 51
1000
0000
0010
0000
,  // measure 52
0001
0000
0100
0000
,  // measure 53
1000
0000
0002
0000
,  // measure 54
0000
0000
0000
0003
,  // measure 55
0000
0001
0000
0010
,  // measure 56
0000
0100
0000
1000
,  // measure 57
0000
0001
0000
0010
,  // measure 58
0000
1000
0000
0100
,  // measure 59
0000
0001
0000
1000
,  // measure 60
0000
0001
0000
0100
,  // measure 61
0000
1000
0000
0100
,  // measure 62
0000
0001
0001
0001
,  // measure 63
0001
0001
0000
0100
,  // measure 64
0000
0010
0000
0001
,  // measure 65
0000
0010
0000
1000
,  // measure 66
0000
0010
0000
1000
,  // measure 67
0000
0010
0000
1000
,  // measure 68
0000
0010
0000
0000
;
