#TITLE:Lit Right Now;
#SUBTITLE:;
#ARTIST:Ayo & Teo;
#TITLETRANSLIT:;
#SUBTITLETRANSLIT:;
#ARTISTTRANSLIT:;
#GENRE:;
#CREDIT:Gorilla v1.1.3 (Dancing Monkeys v1.06);
#BANNER:;
#BACKGROUND:;
#LYRICSPATH:;
#CDTITLE:;
#MUSIC:Ayo & Teo - Lit Right Now (PROD. BL$$D).mp3;
#OFFSET:-1.850884;
#SAMPLESTART:44.406437;
#SAMPLELENGTH:12.000000;
#SELECTABLE:YES;
#BPMS:0.000000=140.992004
;
#STOPS:
;
#BGCHANGES:;
#KEYSOUNDS:;
#ATTACKS:;

//---------------dance-single - Basic----------------
#NOTES:
     dance-single:
     Basic:
     Easy:
     2:
     0.161964,0.211633,0.000000,0.041991,0.000000,135.000000,135.000000,0.000000,5.000000,0.000000,0.000000,0.161964,0.211633,0.000000,0.041991,0.000000,135.000000,135.000000,0.000000,5.000000,0.000000,0.000000:
// measure 0
0000
0000
0000
0001
,  // measure 1
0000
0000
0000
1000
,  // measure 2
1000
0100
0000
0000
,  // measure 3
0000
0000
0000
0001
,  // measure 4
0000
0000
0010
0000
,  // measure 5
1000
1000
2000
0000
,  // measure 6
3000
0000
0000
0000
,  // measure 7
1000
0000
1000
1000
,  // measure 8
0000
0001
0001
0001
,  // measure 9
0000
1000
1000
1000
,  // measure 10
0000
0001
0001
0001
,  // measure 11
1000
0000
1000
1000
,  // measure 12
0001
0100
0010
0010
,  // measure 13
0000
1000
0000
0010
,  // measure 14
0000
0001
0001
0001
,  // measure 15
1000
0000
1000
1000
,  // measure 16
0000
0001
0001
0000
,  // measure 17
1000
0000
0010
0000
,  // measure 18
0100
0000
0001
0001
,  // measure 19
0001
0000
1000
1000
,  // measure 20
0000
0010
0000
0000
,  // measure 21
0001
0001
0002
0000
,  // measure 22
0000
0003
0000
0000
,  // measure 23
0001
0000
0010
0000
,  // measure 24
1000
0000
0001
0000
,  // measure 25
1000
0000
0100
0000
,  // measure 26
0010
0000
1000
0000
,  // measure 27
0001
0000
0010
0000
,  // measure 28
1000
0000
0001
0000
,  // measure 29
1000
0000
0010
0000
,  // measure 30
0100
0000
1000
0000
,  // measure 31
0001
0000
0010
0000
,  // measure 32
1000
0000
0001
0000
,  // measure 33
1000
0000
0010
0000
,  // measure 34
0100
0000
1000
1000
,  // measure 35
0000
0001
0001
0001
,  // measure 36
0000
0010
1000
0000
,  // measure 37
1000
1000
2000
0000
,  // measure 38
3000
0000
0010
0000
,  // measure 39
1000
0000
1000
0010
,  // measure 40
0000
0000
1000
0010
,  // measure 41
0000
0000
0001
0100
,  // measure 42
0000
0000
1000
0000
,  // measure 43
0001
0000
0010
0000
,  // measure 44
0100
0000
1000
0000
,  // measure 45
0002
0000
0000
0000
,  // measure 46
0000
0000
0000
0003
,  // measure 47
0000
1000
1000
1000
,  // measure 48
0000
0001
0001
0001
,  // measure 49
0000
1000
1000
1000
,  // measure 50
0000
0001
0001
0001
,  // measure 51
0000
1000
1000
1000
,  // measure 52
0000
0100
0000
0000
,  // measure 53
1000
0000
1000
1000
,  // measure 54
0000
0100
0000
0000
,  // measure 55
0001
1000
0010
1000
,  // measure 56
0000
0010
0000
0100
,  // measure 57
0000
1000
0000
0010
,  // measure 58
0000
0001
0000
0010
,  // measure 59
0000
1000
0000
0010
,  // measure 60
0000
1000
0000
0000
,  // measure 61
2000
0000
0000
0000
,  // measure 62
3000
1000
1000
1000
,  // measure 63
0001
0000
0000
0000
;

//---------------dance-single - Basic----------------
#NOTES:
     dance-single:
     :
     Beginner:
     2:
     0.122373,0.132271,0.000000,0.000000,0.000000,102.000000,102.000000,0.000000,0.000000,0.000000,0.000000,0.122373,0.132271,0.000000,0.000000,0.000000,102.000000,102.000000,0.000000,0.000000,0.000000,0.000000:
0000
0000
0000
0001
,
0000
0000
0000
1000
,
0000
0100
0000
0000
,
0000
0000
0000
0001
,
0000
0000
0010
0000
,
1000
0000
1000
0000
,
0000
0000
0000
0000
,
1000
0000
1000
0000
,
0000
0001
0000
0001
,
0000
1000
0000
1000
,
0000
0001
0000
0001
,
0000
0000
1000
0000
,
0001
0000
0010
0000
,
0000
1000
0000
0010
,
0000
0001
0000
0001
,
0000
0000
1000
0000
,
0000
0001
0000
0000
,
1000
0000
0010
0000
,
0100
0000
0001
0000
,
0001
0000
1000
0000
,
0000
0010
0000
0000
,
0001
0000
0001
0000
,
0000
0000
0000
0000
,
0001
0000
0010
0000
,
1000
0000
0001
0000
,
1000
0000
0100
0000
,
0010
0000
1000
0000
,
0001
0000
0010
0000
,
1000
0000
0001
0000
,
1000
0000
0010
0000
,
0100
0000
1000
0000
,
0001
0000
0010
0000
,
1000
0000
0001
0000
,
1000
0000
0010
0000
,
0100
0000
1000
0000
,
0000
0001
0000
0001
,
0000
0010
0000
0000
,
1000
0000
1000
0000
,
0000
0000
0010
0000
,
1000
0000
1000
0000
,
0000
0000
1000
0000
,
0000
0000
0001
0000
,
0000
0000
1000
0000
,
0001
0000
0010
0000
,
0100
0000
1000
0000
,
0001
0000
0000
0000
,
0000
0000
0000
0000
,
0000
1000
0000
1000
,
0000
0001
0000
0001
,
0000
1000
0000
1000
,
0000
0001
0000
0001
,
0000
1000
0000
1000
,
0000
0100
0000
0000
,
1000
0000
1000
0000
,
0000
0100
0000
0000
,
0001
0000
0010
0000
,
0000
0010
0000
0100
,
0000
1000
0000
0010
,
0000
0001
0000
0010
,
0000
1000
0000
0010
,
0000
1000
0000
0000
,
1000
0000
0000
0000
,
0000
1000
0000
1000
,
1000
0000
0000
0000
;
