#TITLE:onlymp3.to - Sean Paul Like Glue-a8XXj9McbIQ-192k-1696861606;
#SUBTITLE:;
#ARTIST:Dancing Monkeys Project;
#TITLETRANSLIT:;
#SUBTITLETRANSLIT:;
#ARTISTTRANSLIT:;
#GENRE:;
#CREDIT:Gorilla v1.1.3 (Dancing Monkeys v1.06);
#BANNER:;
#BACKGROUND:;
#LYRICSPATH:;
#CDTITLE:;
#MUSIC:onlymp3.to - Sean Paul Like Glue-a8XXj9McbIQ-192k-1696861606.mp3;
#OFFSET:-1.625229;
#SAMPLESTART:44.109230;
#SAMPLELENGTH:12.000000;
#SELECTABLE:YES;
#BPMS:0.000000=146.878998
;
#STOPS:7.000000=1.634000
;
#BGCHANGES:;
#KEYSOUNDS:;
#ATTACKS:;

//---------------dance-single - Basic----------------
#NOTES:
     dance-single:
     Basic:
     Easy:
     6:
     0.369786,0.424676,0.019033,0.000000,0.000000,272.000000,270.000000,2.000000,0.000000,0.000000,0.000000,0.369786,0.424676,0.019033,0.000000,0.000000,272.000000,270.000000,2.000000,0.000000,0.000000,0.000000:
0001
0000
0000
0100
,
0000
0001
1000
0000
,
0010
0000
0000
0000
0000
0001
0001
0000
,
0000
0000
0000
1000
0000
0000
1000
0000
,
1000
0000
0000
0010
1000
0000
0000
0000
,
1000
0001
1000
0010
,
0001
0100
0001
0010
,
1000
0001
1000
0010
,
1000
0001
1000
0010
,
1000
0001
1000
0000
,
0001
0000
1000
0010
0000
0000
1000
0000
,
1000
0000
0010
0000
0100
0000
0001
0001
,
1000
0100
0010
0000
,
0001
0000
1000
0010
0000
0000
1000
0000
,
0001
0001
0000
0000
0100
0000
0010
0100
,
1000
0000
0001
0000
0100
0010
1000
0000
,
1000
0000
0010
1000
0010
0000
0001
0000
,
0001
0010
0100
0000
0001
0000
1000
0100
,
1000
0000
0001
0000
0100
0010
1000
0000
,
0001
0000
1000
0001
0100
0000
0010
0001
,
0001
0010
0100
0000
0001
0000
1000
0100
,
1000
0000
0001
0000
0100
0010
1000
0000
,
0001
0000
1000
0001
0100
0000
0010
0001
,
1000
1000
0010
0000
1000
0000
0100
0010
,
1000
0000
0001
0000
0100
0010
1000
0100
,
1000
0000
0001
0001
1000
0000
1001
0000
,
0001
0010
0100
0000
0001
0000
1000
0100
,
1000
0100
0010
0000
,
0001
0000
1000
1000
0000
0000
0100
0000
,
1000
0000
0000
0000
0100
0000
0010
0001
,
1000
0100
0010
0000
,
0001
0000
1000
1000
0000
0000
0100
0000
,
0001
1000
0010
1000
0010
0000
0100
0010
,
0001
0000
1000
0000
0001
0100
0000
0000
,
0100
0000
0010
0100
0010
0000
0001
0000
,
0001
0010
0100
0000
0001
0000
1000
0100
,
1000
0000
0001
0000
0100
0010
1000
0000
,
0010
0000
0010
0100
0010
0000
0001
0000
,
0001
1000
0010
0000
0010
0000
0100
0010
,
1000
0000
0001
0000
0100
0010
1000
0000
,
0010
0000
0010
0100
0010
0000
0001
0000
,
0001
0010
0100
0000
0001
0000
1000
0100
,
1000
0000
0001
0000
0100
0010
1000
0100
,
1000
0000
0001
0010
0100
0000
1001
0000
,
0001
1000
0010
1000
0010
0000
0100
0010
,
0001
0000
1000
0000
0001
0100
0001
0000
,
0010
0000
1000
0001
0100
0000
0010
0000
,
0100
0000
0010
0000
0100
0000
0010
0100
,
1000
0000
0001
0000
0100
0010
1000
0000
,
0001
0000
1000
0001
0100
0000
0010
0000
,
0001
0010
0100
0000
0001
0000
1000
0000
,
1000
0100
0010
0000
,
0001
0000
1000
1000
0000
0000
0100
0000
,
1000
1000
0000
0000
0001
0000
1000
0000
,
1000
0100
0010
0000
,
0001
0000
1000
1000
0000
0000
0100
0000
,
1000
1000
0000
0000
0001
0000
1000
0000
,
1000
0100
0010
0000
,
0001
0000
1000
1000
0000
0000
0100
0000
,
0001
0000
0001
0000
;
