#VERSION:0.83;
#TITLE:Bloody Mary;
#SUBTITLE:;
#ARTIST:Lady Gaga;
#TITLETRANSLIT:;
#SUBTITLETRANSLIT:;
#ARTISTTRANSLIT:;
#GENRE:;
#ORIGIN:;
#CREDIT:Gorilla v1.1.3 (Dancing Monkeys v1.06);
#BANNER:;
#BACKGROUND:;
#PREVIEWVID:;
#JACKET:;
#CDIMAGE:;
#DISCIMAGE:;
#LYRICSPATH:;
#CDTITLE:;
#MUSIC:Lady Gaga - Bloody Mary (Sped Up TikTok Remix).mp3;
#OFFSET:-2.300813;
#SAMPLESTART:50.964142;
#SAMPLELENGTH:12.000000;
#SELECTABLE:YES;
#BPMS:0.000=128.228;
#STOPS:;
#DELAYS:;
#WARPS:;
#TIMESIGNATURES:0.000=4=4;
#TICKCOUNTS:0.000=4;
#COMBOS:0.000=1;
#SPEEDS:0.000=1.000=0.000=0;
#SCROLLS:0.000=1.000;
#FAKES:;
#LABELS:0.000=Song Start;
#BGCHANGES:;
#KEYSOUNDS:;
#ATTACKS:
;

//---------------dance-single - Basic----------------
#NOTEDATA:;
#CHARTNAME:Basic;
#STEPSTYPE:dance-single;
#DESCRIPTION:Basic;
#CHARTSTYLE:;
#DIFFICULTY:Easy;
#METER:3;
#RADARVALUES:0.145582,0.207979,0.000000,0.032663,0.000000,156.000000,156.000000,0.000000,5.000000,0.000000,0.000000,0.000000,0.000000,0.000000,0.145582,0.207979,0.000000,0.032663,0.000000,156.000000,156.000000,0.000000,5.000000,0.000000,0.000000,0.000000,0.000000,0.000000;
#CREDIT:Basic;
#NOTES:
// measure 0
0000
0000
0000
0000
,  // measure 1
1000
0000
0000
0000
,  // measure 2
0100
0000
0010
0000
,  // measure 3
1000
0000
0100
0000
,  // measure 4
0001
0000
0100
0000
,  // measure 5
0001
0000
0010
0000
,  // measure 6
0001
0000
0010
0000
,  // measure 7
0001
0000
0010
0000
,  // measure 8
0001
0000
0010
0000
,  // measure 9
0001
0000
0010
0000
,  // measure 10
1000
0000
0100
0000
,  // measure 11
1000
0000
0100
0000
,  // measure 12
1000
0000
1000
0000
,  // measure 13
0010
0000
1000
0000
,  // measure 14
0010
0000
0000
0000
,  // measure 15
1000
1000
1000
1000
,  // measure 16
0010
0010
0010
0010
,  // measure 17
0001
0001
0001
0001
,  // measure 18
1000
0000
0100
0000
,  // measure 19
1000
1000
1000
1000
,  // measure 20
0010
0010
0010
0010
,  // measure 21
1000
1000
1000
1000
,  // measure 22
1000
1000
0000
0010
,  // measure 23
0000
1000
0000
0100
,  // measure 24
0000
0001
0000
0010
,  // measure 25
0000
1000
0000
0001
,  // measure 26
0002
0000
0003
0000
,  // measure 27
1000
0000
0010
0000
,  // measure 28
0001
0000
0100
0000
,  // measure 29
0001
0000
0010
0000
,  // measure 30
2000
0000
3000
0000
,  // measure 31
1000
0000
0100
0000
,  // measure 32
0001
0000
0100
0000
,  // measure 33
1000
0000
0010
0000
,  // measure 34
0001
0000
0000
0000
,  // measure 35
1000
0000
0100
0000
,  // measure 36
1000
0000
0100
0000
,  // measure 37
0001
0000
0100
0000
,  // measure 38
1000
0000
0010
0000
,  // measure 39
0001
0000
0001
0000
,  // measure 40
1000
0000
0100
0000
,  // measure 41
1000
0000
0010
0000
,  // measure 42
0001
0000
0000
0000
,  // measure 43
0001
0001
0001
1000
,  // measure 44
0100
0100
0100
0001
,  // measure 45
0010
0010
0010
1000
,  // measure 46
0020
0000
0030
0000
,  // measure 47
0001
0001
0001
0000
,  // measure 48
1000
1000
1000
0000
,  // measure 49
0010
0010
0010
0010
,  // measure 50
0010
0010
0010
0000
,  // measure 51
1000
0000
0010
0000
,  // measure 52
0100
0000
0001
0000
,  // measure 53
0010
0000
1000
0000
,  // measure 54
0001
0000
0100
0000
,  // measure 55
1000
0000
0010
0000
,  // measure 56
0100
0000
0001
0000
,  // measure 57
1000
0000
0010
0000
,  // measure 58
0200
0000
0300
0000
,  // measure 59
1000
0000
0010
0000
,  // measure 60
1000
0000
0010
0000
,  // measure 61
1000
0000
0100
0000
,  // measure 62
1000
0000
0020
0000
,  // measure 63
0030
0000
0010
0010
,  // measure 64
0000
0000
0001
0001
,  // measure 65
0000
0000
1000
1000
,  // measure 66
0000
0000
0010
0010
,  // measure 67
0000
0000
1000
1000
,  // measure 68
0000
0000
0010
0010
,  // measure 69
0000
0000
1000
1000
,  // measure 70
0000
0000
0001
0001
;
