#TITLE:Kiss Me Thru The Phone;
#SUBTITLE:;
#ARTIST:Dancing Monkeys Project;
#TITLETRANSLIT:;
#SUBTITLETRANSLIT:;
#ARTISTTRANSLIT:;
#GENRE:;
#CREDIT:Gorilla v1.1.3 (Dancing Monkeys v1.06);
#BANNER:;
#BACKGROUND:;
#LYRICSPATH:;
#CDTITLE:;
#MUSIC:Kiss Me Thru The Phone.mp3;
#OFFSET:-0.060458;
#SAMPLESTART:43.262707;
#SAMPLELENGTH:12.000000;
#SELECTABLE:YES;
#BPMS:0.000000=149.992188
;
#STOPS:
;
#BGCHANGES:;
#KEYSOUNDS:;
#ATTACKS:;

//---------------dance-single - Basic----------------
#NOTES:
     dance-single:
     Basic:
     Easy:
     4:
     0.110429,0.109314,0.000000,0.039041,0.000000,99.000000,99.000000,0.000000,5.000000,0.000000,0.000000,0.110429,0.109314,0.000000,0.039041,0.000000,99.000000,99.000000,0.000000,5.000000,0.000000,0.000000:
// measure 0
0002
0000
0003
0000
,  // measure 1
0010
0000
0000
1000
,  // measure 2
0000
0000
0000
0000
,  // measure 3
0000
0000
0100
0000
,  // measure 4
0001
0000
0000
0000
,  // measure 5
0001
0000
0010
0000
,  // measure 6
0000
0200
0000
0000
,  // measure 7
0000
0300
0000
0000
,  // measure 8
1000
0000
0010
0000
,  // measure 9
0001
0000
0010
0000
,  // measure 10
1000
0000
0100
0000
,  // measure 11
1000
0000
0001
0000
,  // measure 12
0001
0000
0100
0000
,  // measure 13
0010
0000
0100
0000
,  // measure 14
1000
0000
0001
0000
,  // measure 15
1000
0000
0010
0000
,  // measure 16
0001
0000
0100
0000
,  // measure 17
0010
0000
0100
0000
,  // measure 18
1000
0000
0100
0000
,  // measure 19
1000
0000
0001
0000
,  // measure 20
1000
0000
0010
0000
,  // measure 21
0100
0000
1000
0000
,  // measure 22
0010
0000
0100
0000
,  // measure 23
0010
0000
0100
0000
,  // measure 24
0001
0000
1000
0000
,  // measure 25
0010
0000
1000
0000
,  // measure 26
0010
0000
0100
0000
,  // measure 27
0010
0000
0100
0000
,  // measure 28
1000
0000
0010
0000
,  // measure 29
0100
0000
1000
0000
,  // measure 30
0100
0000
0010
0000
,  // measure 31
0001
0000
0010
0000
,  // measure 32
0001
0000
1000
0000
,  // measure 33
0001
0000
0100
0000
,  // measure 34
0001
0000
1000
0000
,  // measure 35
0001
0000
0100
0000
,  // measure 36
0010
0000
0100
0000
,  // measure 37
1000
0000
0010
0000
,  // measure 38
0200
0000
0000
0000
,  // measure 39
0300
0000
0000
0000
,  // measure 40
1000
0000
0100
0000
,  // measure 41
0010
0000
1000
0000
,  // measure 42
0001
0000
0100
0000
,  // measure 43
1000
0000
0001
0000
,  // measure 44
0010
0000
0100
0000
,  // measure 45
0001
0000
0100
0000
,  // measure 46
1000
0000
0001
0000
,  // measure 47
1000
0000
0010
0000
,  // measure 48
2000
0000
0000
3000
,  // measure 49
0010
0000
0000
0000
,  // measure 50
1000
0000
1000
0000
,  // measure 51
0100
0000
0010
0000
,  // measure 52
0020
0000
0030
0000
,  // measure 53
0010
0000
0100
0000
,  // measure 54
0001
0000
0100
0000
,  // measure 55
1000
0000
0100
0000
,  // measure 56
0010
0000
0000
0000
;
