#TITLE:Chris Brown Kiss Kiss (Lyrics) ft. T Pain;
#SUBTITLE:;
#ARTIST:Dancing Monkeys Project;
#TITLETRANSLIT:;
#SUBTITLETRANSLIT:;
#ARTISTTRANSLIT:;
#GENRE:;
#CREDIT:Gorilla v1.1.3 (Dancing Monkeys v1.06);
#BANNER:;
#BACKGROUND:;
#LYRICSPATH:;
#CDTITLE:;
#MUSIC:Chris Brown Kiss Kiss (Lyrics) ft. T Pain.mp3;
#OFFSET:-0.902375;
#SAMPLESTART:43.750290;
#SAMPLELENGTH:12.000000;
#SELECTABLE:YES;
#BPMS:0.000000=140.030151
;
#STOPS:-0.020833=26.000000
;
#BGCHANGES:;
#KEYSOUNDS:;
#ATTACKS:;

//---------------dance-single - Basic----------------
#NOTES:
     dance-single:
     Basic:
     Easy:
     3:
     0.060409,0.083291,0.000000,0.000000,0.000000,66.000000,66.000000,0.000000,0.000000,0.000000,0.000000,0.060409,0.083291,0.000000,0.000000,0.000000,66.000000,66.000000,0.000000,0.000000,0.000000,0.000000:
// measure 0
0000
0000
0100
0000
,  // measure 1
0000
0000
1000
0000
,  // measure 2
0010
0000
0000
0100
,  // measure 3
0000
0000
0010
0000
,  // measure 4
0100
0000
0010
0000
,  // measure 5
0001
0000
0100
0000
,  // measure 6
0010
0000
0010
0000
,  // measure 7
0000
0000
0001
0000
,  // measure 8
0010
0000
1000
0000
,  // measure 9
0000
0000
0010
0000
,  // measure 10
0100
0000
0001
0000
,  // measure 11
0000
0000
1000
0000
,  // measure 12
0000
0000
0010
0000
,  // measure 13
0000
0000
0010
0000
,  // measure 14
0000
0000
0001
0000
,  // measure 15
0010
0000
0100
0000
,  // measure 16
0010
0000
0000
0000
,  // measure 17
0000
0000
0000
0000
,  // measure 18
0000
0000
0000
0000
,  // measure 19
0000
0000
0000
0000
,  // measure 20
0000
0000
0010
0000
,  // measure 21
0000
0000
0001
0000
,  // measure 22
0000
0000
0100
0000
,  // measure 23
0001
0000
0000
0000
,  // measure 24
0100
0000
0000
0000
,  // measure 25
0010
0000
0000
0000
,  // measure 26
1000
0000
0000
0000
,  // measure 27
0100
0000
0000
0000
,  // measure 28
0100
0000
0000
0000
,  // measure 29
0010
0000
0000
0000
,  // measure 30
1000
0000
0000
0000
,  // measure 31
0010
0000
1000
0000
,  // measure 32
0000
0000
1000
0000
,  // measure 33
0000
0000
0100
0000
,  // measure 34
0000
0000
0010
0000
,  // measure 35
0000
0000
0001
0000
,  // measure 36
1000
0000
1000
0000
,  // measure 37
0010
0000
0000
0000
,  // measure 38
0010
0000
0000
0000
,  // measure 39
0001
0000
0100
0000
,  // measure 40
0000
0000
0010
0000
,  // measure 41
0000
0100
0000
0000
,  // measure 42
0100
0000
0001
0000
,  // measure 43
0000
0000
0010
0000
,  // measure 44
1000
0000
0001
0000
,  // measure 45
0100
0000
0001
0000
,  // measure 46
0010
0000
0100
0000
,  // measure 47
0000
0000
1000
0000
,  // measure 48
0000
0000
0100
0000
,  // measure 49
0010
0000
0001
0000
,  // measure 50
0010
0000
0100
0000
,  // measure 51
0000
0000
0010
0000
,  // measure 52
1000
0000
0000
0000
;
