#VERSION:0.83;
#TITLE:Kim Possible Theme Song Remix;
#SUBTITLE:;
#ARTIST:Dancing Monkeys Project;
#TITLETRANSLIT:;
#SUBTITLETRANSLIT:;
#ARTISTTRANSLIT:;
#GENRE:;
#ORIGIN:;
#CREDIT:Gorilla v1.1.3 (Dancing Monkeys v1.06);
#BANNER:KIM POSSIBLE THEME SONG 3.png;
#BACKGROUND:b0836fde33417ccbaf45625286649014.png;
#PREVIEWVID:;
#JACKET:;
#CDIMAGE:;
#DISCIMAGE:;
#LYRICSPATH:;
#CDTITLE:;
#MUSIC:DJ Flex - Kim Possible Remix (Feat. PeacefulJoshua) Tik Tok Version.mp3;
#OFFSET:-1.745782;
#SAMPLESTART:46.128643;
#SAMPLELENGTH:12.000000;
#SELECTABLE:YES;
#BPMS:0.000=146.002;
#STOPS:;
#DELAYS:;
#WARPS:;
#TIMESIGNATURES:0.000=4=4;
#TICKCOUNTS:0.000=4;
#COMBOS:0.000=1;
#SPEEDS:0.000=1.000=0.000=0;
#SCROLLS:0.000=1.000;
#FAKES:;
#LABELS:0.000=Song Start;
#BGCHANGES:;
#KEYSOUNDS:;
#ATTACKS:
;

//---------------dance-single - Basic----------------
#NOTEDATA:;
#CHARTNAME:Basic;
#STEPSTYPE:dance-single;
#DESCRIPTION:Basic;
#CHARTSTYLE:;
#DIFFICULTY:Easy;
#METER:3;
#RADARVALUES:0.262181,0.242770,0.000000,0.020168,0.000000,182.000000,182.000000,0.000000,2.000000,0.000000,0.000000,0.000000,0.000000,0.000000,0.262181,0.242770,0.000000,0.020168,0.000000,182.000000,182.000000,0.000000,2.000000,0.000000,0.000000,0.000000,0.000000,0.000000;
#CREDIT:Basic;
#NOTES:
1000
1000
0000
0000
,
0010
0010
0000
0000
,
0001
1000
0001
1000
,
0001
0000
0010
1000
,
0001
0010
0100
0001
,
0010
0100
0001
0010
,
1000
0001
1000
0001
,
1000
0001
0100
0010
,
1000
0001
0100
0010
,
1000
0001
0010
0100
,
0001
0010
0100
0001
,
1000
0100
0010
1000
,
1000
0010
0100
1000
,
0001
0010
0100
0000
,
2000
0000
0000
3000
,
1000
1000
0001
0001
,
0000
0001
0001
0000
,
0010
0100
0001
0010
,
1000
0001
0100
0010
,
0001
0001
1000
1000
,
0010
0010
1000
1000
,
0001
0001
0100
0100
,
0001
0001
0010
0100
,
1000
0001
0100
0010
,
1000
0001
0010
0100
,
1000
0001
0100
0010
,
0000
0000
0000
0000
,
0000
1000
0010
0100
,
0001
0100
0010
1000
,
0001
1000
0010
0100
,
0002
0000
0000
0003
,
1000
1000
0010
0100
,
0001
0100
1000
0000
,
1000
1000
0010
1000
,
0001
0100
0010
0010
,
0001
1000
0010
0100
,
1000
0001
0010
1000
,
0001
1000
0010
0001
,
0000
0000
0000
0000
,
0000
1000
0001
0010
,
1000
0100
0010
1000
,
0001
1000
0001
0010
,
1000
0001
0100
0010
,
1000
0010
0100
1000
,
0001
0100
0001
0010
,
0001
0010
1000
0010
,
0000
0000
0000
0000
,
0000
0001
1000
0001
,
1000
0001
1000
0001
,
1000
0001
1000
0010
,
1000
0001
1000
0000
,
0000
0000
0100
0010
,
0100
0010
0100
0010
,
0010
0100
0100
0000
;
