#TITLE:KND GWAR 2;
#SUBTITLE:;
#ARTIST:Unknown artist;
#TITLETRANSLIT:;
#SUBTITLETRANSLIT:;
#ARTISTTRANSLIT:;
#GENRE:;
#CREDIT:;
#BANNER:sector-v-all-hands-in.png;
#BACKGROUND:ec04f32fc89b3b4c4c7a86448127436e.png;
#LYRICSPATH:;
#CDTITLE:;
#MUSIC:onlymp3.to - RAWG Slamwich GWAR -MjdftYLe-8s-192k-1707087172.mp3;
#OFFSET:0.000000;
#SAMPLESTART:100.000000;
#SAMPLELENGTH:12.000000;
#SELECTABLE:YES;
#BPMS:0.000000=150.000000
;
#STOPS:
;
#BGCHANGES:;
#KEYSOUNDS:;
#ATTACKS:;

//---------------dance-single - ----------------
#NOTES:
     dance-single:
     :
     Easy:
     1:
     0.262417,0.280053,0.000000,0.120390,0.000000,473.000000,473.000000,0.000000,31.000000,0.000000,0.000000,0.262417,0.280053,0.000000,0.120390,0.000000,473.000000,473.000000,0.000000,31.000000,0.000000,0.000000:
// measure 0
0000
0000
0000
0000
,  // measure 1
0000
0000
0000
0000
,  // measure 2
0000
0000
0000
0000
,  // measure 3
0000
0000
0000
0000
,  // measure 4
0000
0000
0000
0000
,  // measure 5
0000
0000
0000
0000
,  // measure 6
0000
2000
0000
0000
,  // measure 7
0000
0000
3000
0000
,  // measure 8
0002
0000
0000
0000
,  // measure 9
0000
0000
0003
0000
,  // measure 10
0000
2000
0000
0000
,  // measure 11
0000
0000
0000
3000
,  // measure 12
0000
0000
0000
0002
,  // measure 13
0000
0000
0000
0000
,  // measure 14
0000
0000
0003
0000
,  // measure 15
2000
0000
0000
0000
,  // measure 16
0000
3000
0000
0020
,  // measure 17
0000
0000
0000
0000
,  // measure 18
0000
0030
0000
0000
,  // measure 19
1000
0000
0000
0000
,  // measure 20
0000
0001
0000
0000
,  // measure 21
0000
0000
0000
0010
,  // measure 22
0000
0000
0000
0000
,  // measure 23
0100
0000
0000
0000
,  // measure 24
0000
1000
0000
0000
,  // measure 25
0000
0000
0000
0010
,  // measure 26
0000
0000
0000
0000
,  // measure 27
0000
0100
0000
0000
,  // measure 28
0000
0000
0000
1000
,  // measure 29
0000
0000
0000
0000
,  // measure 30
0100
0001
0010
1000
,  // measure 31
0100
0001
0010
1000
,  // measure 32
0001
0010
0100
1000
,  // measure 33
0010
1000
0100
0001
,  // measure 34
0010
1000
0100
0010
,  // measure 35
0001
0010
1000
0100
,  // measure 36
0010
0001
0010
0100
,  // measure 37
1000
0100
0010
0001
,  // measure 38
0010
1000
0001
0100
,  // measure 39
0010
1000
0100
0010
,  // measure 40
0001
0010
1000
0100
,  // measure 41
0010
0100
1000
0001
,  // measure 42
0010
0100
1000
0010
,  // measure 43
0001
0100
1000
0010
,  // measure 44
0100
1000
0001
0010
,  // measure 45
0100
1000
0001
0010
,  // measure 46
0100
0001
0010
1000
,  // measure 47
0100
0010
1000
0001
,  // measure 48
0010
0100
1000
0001
,  // measure 49
0010
0100
1000
0010
,  // measure 50
0001
0100
0010
0001
,  // measure 51
1000
0100
0010
1000
,  // measure 52
0001
0100
0010
1000
,  // measure 53
0100
0001
0100
1000
,  // measure 54
0010
0100
0001
0010
,  // measure 55
1000
0100
0010
1000
,  // measure 56
0100
0010
0002
0000
,  // measure 57
0003
1000
0100
0010
,  // measure 58
0001
0010
0100
1000
,  // measure 59
0001
0010
0100
1000
,  // measure 60
0001
0010
0100
1000
,  // measure 61
0001
0010
0100
0001
,  // measure 62
1000
0010
0100
0001
,  // measure 63
0100
1000
0010
1000
,  // measure 64
0100
0001
0010
0100
,  // measure 65
1000
0010
0100
0001
,  // measure 66
0010
0100
1000
0010
,  // measure 67
0100
0001
0010
0100
,  // measure 68
1000
0100
0001
0010
,  // measure 69
0100
1000
0100
0001
,  // measure 70
0010
0100
0001
0010
,  // measure 71
0100
1000
0010
0100
,  // measure 72
0001
0010
1000
0100
,  // measure 73
0001
2000
0000
0000
,  // measure 74
3002
0000
0000
2003
,  // measure 75
0000
0000
3002
0000
,  // measure 76
0000
2003
0000
0000
,  // measure 77
3002
0000
0000
2003
,  // measure 78
0000
0000
3020
0030
,  // measure 79
0001
0010
1000
0100
,  // measure 80
0001
0010
0100
1000
,  // measure 81
0010
0100
1000
0001
,  // measure 82
0010
0100
1000
0001
,  // measure 83
0010
0100
1000
0100
,  // measure 84
0001
0010
0100
0001
,  // measure 85
0010
0100
0001
1000
,  // measure 86
0010
0001
1000
0010
,  // measure 87
1000
0100
0001
0010
,  // measure 88
1000
0100
0001
0010
,  // measure 89
1000
0001
0010
0100
,  // measure 90
0001
1000
0100
0001
,  // measure 91
0010
1000
0001
1000
,  // measure 92
0100
0010
1000
0001
,  // measure 93
0100
0001
0010
0100
,  // measure 94
1000
0100
0000
0000
,  // measure 95
0000
0000
2000
3000
,  // measure 96
0001
2000
3000
0001
,  // measure 97
0001
2000
3000
1000
,  // measure 98
0002
0003
0001
1000
,  // measure 99
1000
0020
0030
0010
,  // measure 100
2000
3000
1000
1000
,  // measure 101
0020
0030
0010
2000
,  // measure 102
0000
3000
1000
0100
,  // measure 103
0001
0010
0100
0010
,  // measure 104
1000
0100
0001
0000
,  // measure 105
1000
0100
0001
0010
,  // measure 106
1000
0100
0010
0001
,  // measure 107
0010
0100
1000
0100
,  // measure 108
0001
0010
1000
0100
,  // measure 109
0001
0010
0100
1000
,  // measure 110
0010
0100
0001
0010
,  // measure 111
1000
0100
0001
0010
,  // measure 112
1000
0100
0010
0001
,  // measure 113
0010
1000
0100
0010
,  // measure 114
1000
0001
0010
0100
,  // measure 115
1000
0100
0001
0010
,  // measure 116
1000
0100
0001
0010
,  // measure 117
0100
1000
0100
0001
,  // measure 118
0010
1000
0100
0010
,  // measure 119
0001
0010
1000
0100
,  // measure 120
0001
0010
0100
1000
,  // measure 121
0001
0010
0001
0010
,  // measure 122
1000
0100
0010
0001
,  // measure 123
0010
0100
1000
0100
,  // measure 124
0001
0010
1000
0200
,  // measure 125
0000
0000
0300
0010
,  // measure 126
1000
0001
0010
1000
,  // measure 127
0100
0001
0010
1000
,  // measure 128
0100
0001
0010
0100
,  // measure 129
0001
1000
0010
1000
,  // measure 130
0100
0001
0100
0010
,  // measure 131
1000
0001
0010
0100
,  // measure 132
0010
1000
0100
0001
,  // measure 133
0010
0100
1000
0100
,  // measure 134
0010
0001
0010
1000
,  // measure 135
0100
0001
0010
1000
,  // measure 136
0100
0001
0010
1000
,  // measure 137
0100
0010
0001
1000
,  // measure 138
0100
0001
0010
0100
,  // measure 139
1000
0100
0001
0010
,  // measure 140
1000
0100
0001
0200
,  // measure 141
0000
0000
0000
0000
,  // measure 142
0302
0000
0000
0000
,  // measure 143
0000
2003
0000
0000
,  // measure 144
0000
0000
3002
0000
,  // measure 145
0000
0000
0000
2003
,  // measure 146
0000
0000
0000
0000
,  // measure 147
3002
0000
0000
0000
,  // measure 148
0000
0003
0000
1000
,  // measure 149
0001
0010
1000
0100
,  // measure 150
0001
0010
0100
1000
,  // measure 151
0100
0001
0010
1000
,  // measure 152
0100
0001
0010
1000
,  // measure 153
0100
0010
1000
0001
,  // measure 154
0010
1000
0100
0001
,  // measure 155
0010
0100
1000
0100
,  // measure 156
0001
0010
1000
0100
,  // measure 157
0001
0010
1000
0010
,  // measure 158
0001
0100
1000
0010
,  // measure 159
0001
0010
0200
0000
,  // measure 160
0000
0300
0000
0000
;
