#VERSION:0.83;
#TITLE:KND GWAR 1;
#SUBTITLE:;
#ARTIST:Unknown artist;
#TITLETRANSLIT:;
#SUBTITLETRANSLIT:;
#ARTISTTRANSLIT:;
#GENRE:;
#ORIGIN:;
#CREDIT:;
#BANNER:balls.png;
#BACKGROUND:0lnxr2in3wfa1.png;
#PREVIEWVID:;
#JACKET:;
#CDIMAGE:;
#DISCIMAGE:;
#LYRICSPATH:;
#CDTITLE:;
#MUSIC:onlymp3.to - RAWG Gramma Stuffum GWAR -j1G8c4hBghk-192k-1707081005.mp3;
#OFFSET:0.000000;
#SAMPLESTART:100.000000;
#SAMPLELENGTH:12.000000;
#SELECTABLE:YES;
#BPMS:0.000=100.000,
70.000=120.000,
149.000=130.000;
#STOPS:;
#DELAYS:;
#WARPS:;
#TIMESIGNATURES:0.000=4=4;
#TICKCOUNTS:0.000=4;
#COMBOS:0.000=1;
#SPEEDS:0.000=1.000=0.000=0,
10.500=1.800=0.000=0,
70.000=2.300=0.000=0;
#SCROLLS:0.000=1.000;
#FAKES:;
#LABELS:0.000=Song Start;
#BGCHANGES:;
#KEYSOUNDS:;
#ATTACKS:
;

//---------------dance-single - ----------------
#NOTEDATA:;
#CHARTNAME:;
#STEPSTYPE:dance-single;
#DESCRIPTION:;
#CHARTSTYLE:;
#DIFFICULTY:Easy;
#METER:1;
#RADARVALUES:0.242874,0.224306,0.003456,0.193509,0.000000,492.000000,491.000000,1.000000,56.000000,0.000000,0.000000,0.000000,0.000000,0.000000,0.242874,0.224306,0.003456,0.193509,0.000000,492.000000,491.000000,1.000000,56.000000,0.000000,0.000000,0.000000,0.000000,0.000000;
#CREDIT:;
#NOTES:
// measure 0
0000
2000
0000
0000
,  // measure 1
0000
3000
0002
0000
,  // measure 2
0000
0000
0003
1000
,  // measure 3
0100
0010
1000
0001
,  // measure 4
0010
1000
0100
0001
,  // measure 5
0010
1000
0100
0001
,  // measure 6
0010
1000
0100
0001
,  // measure 7
1000
0100
0010
1000
,  // measure 8
0001
0010
0100
1000
,  // measure 9
0001
0010
0001
0010
,  // measure 10
0100
1000
0000
1000
,  // measure 11
0020
0030
0001
0100
,  // measure 12
1000
0010
0100
0001
,  // measure 13
0100
0010
1000
0100
,  // measure 14
0010
0200
0300
0001
,  // measure 15
0010
0100
0100
0001
,  // measure 16
0020
0000
0030
0001
,  // measure 17
1000
0100
2002
0000
,  // measure 18
3003
2000
0000
3000
,  // measure 19
0002
0000
0023
0000
,  // measure 20
0230
0000
0300
0001
,  // measure 21
0010
0100
1000
0100
,  // measure 22
0001
0010
0100
1000
,  // measure 23
0001
0010
0100
0001
,  // measure 24
0010
0100
0001
0010
,  // measure 25
0100
0001
0010
0100
,  // measure 26
1000
2000
3000
0002
,  // measure 27
0003
2000
3000
0020
,  // measure 28
0030
0002
0003
0020
,  // measure 29
0030
2000
3000
0020
,  // measure 30
0030
0002
0003
0200
,  // measure 31
0300
0100
0200
0300
,  // measure 32
0010
1000
0010
1000
,  // measure 33
0001
1000
0100
0010
,  // measure 34
0001
0010
0100
1000
,  // measure 35
0001
0010
0100
1000
,  // measure 36
0020
0000
0000
0000
,  // measure 37
0030
0000
1000
0001
,  // measure 38
0010
0100
0001
0010
,  // measure 39
0100
0001
1000
0100
,  // measure 40
0010
1000
0002
2003
,  // measure 41
3002
2003
3002
2003
,  // measure 42
3002
2003
3000
0010
,  // measure 43
1000
0200
0300
0020
,  // measure 44
0030
0200
0300
0010
,  // measure 45
0100
1000
0100
0010
,  // measure 46
0001
0010
1000
0010
,  // measure 47
0100
0001
0010
0100
,  // measure 48
0001
1000
0010
0100
,  // measure 49
0001
0010
1000
0100
,  // measure 50
0001
0010
1000
0001
,  // measure 51
0010
0100
0001
1000
,  // measure 52
0100
0001
0010
0100
,  // measure 53
1000
0001
0010
0100
,  // measure 54
0001
0010
0100
1000
,  // measure 55
0010
0100
0001
0010
,  // measure 56
0001
0010
0100
1000
,  // measure 57
0100
0010
1000
0100
,  // measure 58
0001
0010
0100
0001
,  // measure 59
0010
1000
0100
0010
,  // measure 60
0001
0010
1000
0100
,  // measure 61
0001
0010
0100
1000
,  // measure 62
0001
0010
0100
0001
,  // measure 63
0010
1000
0100
0001
,  // measure 64
0010
1000
0100
0010
,  // measure 65
0000
2000
3002
2003
,  // measure 66
3002
2003
3010
1000
,  // measure 67
0100
0010
0100
0010
,  // measure 68
0001
0010
0100
1000
,  // measure 69
0001
1000
0100
0020
,  // measure 70
0000
0000
0030
0000
,  // measure 71
1000
1000
0010
0100
,  // measure 72
0001
0010
0100
2000
,  // measure 73
0000
0000
3001
0010
,  // measure 74
0100
0001
0100
1000
,  // measure 75
0010
0100
1000
0010
,  // measure 76
0100
0001
0010
1000
,  // measure 77
0100
0001
0010
1000
,  // measure 78
0100
0001
0010
1000
,  // measure 79
0100
0001
0010
1000
,  // measure 80
0100
0001
0010
0100
,  // measure 81
1000
0100
0010
0001
,  // measure 82
0010
0100
1000
0100
,  // measure 83
1000
0010
0001
0010
,  // measure 84
1000
0100
1000
0010
,  // measure 85
0001
0100
2000
0000
,  // measure 86
3000
0002
0000
0003
,  // measure 87
2000
0000
3000
0002
,  // measure 88
0000
0003
2000
0000
,  // measure 89
3000
0020
0000
0030
,  // measure 90
0200
0000
0300
0000
,  // measure 91
1000
0100
0001
0010
,  // measure 92
1000
0100
0001
0010
,  // measure 93
1000
0010
0100
0001
,  // measure 94
0010
1000
0100
0001
,  // measure 95
0010
0100
1000
0100
,  // measure 96
0010
0001
0100
0010
,  // measure 97
1000
0100
0001
0010
,  // measure 98
1000
0100
0001
0010
,  // measure 99
1000
0100
0001
0010
,  // measure 100
0100
1000
0100
0001
,  // measure 101
0010
1000
0100
1000
,  // measure 102
0010
0001
0010
1000
,  // measure 103
0100
0001
0010
0100
,  // measure 104
1000
0100
0001
0010
,  // measure 105
0100
1000
0001
0010
,  // measure 106
1000
0100
0001
0010
,  // measure 107
1000
0100
0001
0010
,  // measure 108
0100
1000
0010
0001
,  // measure 109
0010
0100
0001
0010
,  // measure 110
1000
0100
0001
0010
,  // measure 111
1000
0100
1000
0010
,  // measure 112
0100
0001
0010
0100
,  // measure 113
1000
0100
0010
0001
,  // measure 114
0010
1000
0100
0001
,  // measure 115
0010
1000
0100
0001
,  // measure 116
0010
0100
0001
0010
,  // measure 117
1000
0001
0100
0010
,  // measure 118
1000
0100
0001
0010
,  // measure 119
0100
1000
0001
0010
,  // measure 120
0100
0001
0010
1000
,  // measure 121
0100
0002
0000
0000
,  // measure 122
0003
1000
0100
0010
,  // measure 123
1000
2000
0000
0000
,  // measure 124
3000
0000
0001
0010
,  // measure 125
1000
0001
0010
1000
,  // measure 126
0100
0001
1000
0010
,  // measure 127
0100
1000
0100
0001
,  // measure 128
0010
0100
1000
0100
,  // measure 129
0001
0010
1000
0100
,  // measure 130
0001
0010
1000
0100
,  // measure 131
0001
0010
0100
1000
,  // measure 132
0100
0001
0010
1000
,  // measure 133
0100
0001
0010
0100
,  // measure 134
0001
0010
1000
0100
,  // measure 135
0001
0010
1000
0100
,  // measure 136
0001
0010
1000
0100
,  // measure 137
0010
1000
0001
0010
,  // measure 138
0100
1000
0010
0001
,  // measure 139
2000
0000
3000
0002
,  // measure 140
0000
0003
2000
0000
,  // measure 141
0000
3000
0002
0000
,  // measure 142
0000
0003
2000
0000
,  // measure 143
0000
3000
0020
0000
,  // measure 144
0000
0030
0000
0000
;
