#TITLE:Kappa Mikey;
#SUBTITLE:(2);
#ARTIST:Unknown artist;
#TITLETRANSLIT:;
#SUBTITLETRANSLIT:;
#ARTISTTRANSLIT:;
#GENRE:;
#CREDIT:;
#BANNER:7bbc443a030c4c5c43bf63db5186b93e49de841c_00.png;
#BACKGROUND:kappa-mikey-live-action-fan-casting-poster-131020-large.png;
#LYRICSPATH:;
#CDTITLE:;
#MUSIC:New Kappa Mikey Intro.mp3;
#OFFSET:0.000000;
#SAMPLESTART:0.000000;
#SAMPLELENGTH:12.000000;
#SELECTABLE:YES;
#BPMS:0.000000=139.990005
;
#STOPS:-0.020833=1.000000
;
#BGCHANGES:;
#KEYSOUNDS:;
#ATTACKS:;

//---------------dance-single - ----------------
#NOTES:
     dance-single:
     :
     Easy:
     1:
     0.287864,0.282666,0.089558,0.089558,0.000000,90.000000,86.000000,4.000000,4.000000,0.000000,0.000000,0.287864,0.282666,0.089558,0.089558,0.000000,90.000000,86.000000,4.000000,4.000000,0.000000,0.000000:
// measure 0
0000
0000
0000
0000
,  // measure 1
1000
1000
0100
0100
,  // measure 2
0010
0001
0001
0010
,  // measure 3
0100
0100
0001
0010
,  // measure 4
1000
1000
0010
1000
,  // measure 5
0100
0001
0010
0010
,  // measure 6
1000
0100
0100
0010
,  // measure 7
0100
1000
0010
0100
,  // measure 8
0200
0000
0000
0300
,  // measure 9
1001
0010
0010
0010
,  // measure 10
0020
0000
0030
0010
,  // measure 11
0100
0010
0010
0100
,  // measure 12
1000
0100
0010
0100
,  // measure 13
1001
1000
1000
1000
,  // measure 14
2000
0000
0000
3000
,  // measure 15
1000
0010
0100
0001
,  // measure 16
0010
0100
1000
0010
,  // measure 17
1001
0100
1000
0010
,  // measure 18
0001
0100
0010
1000
,  // measure 19
0100
0001
0010
0100
,  // measure 20
1000
0010
1000
0010
,  // measure 21
1001
0100
0001
0010
,  // measure 22
0100
1000
0100
0100
,  // measure 23
1000
1000
0100
0100
,  // measure 24
0020
0000
0000
0000
,  // measure 25
0030
1000
0000
0000
;

//---------------dance-single - ----------------
#NOTES:
     dance-single:
     :
     Beginner:
     1:
     0.159924,0.197866,0.000000,0.089558,0.000000,50.000000,50.000000,0.000000,4.000000,0.000000,0.000000,0.159924,0.197866,0.000000,0.089558,0.000000,50.000000,50.000000,0.000000,4.000000,0.000000,0.000000:
0000
0000
0000
0000
,
0000
1000
0000
0100
,
0000
0001
0000
0010
,
0000
0100
0000
0010
,
0000
1000
0000
0100
,
0000
0001
0000
0010
,
0000
0100
0000
0010
,
0000
1000
0000
0100
,
0200
0000
0300
0000
,
0010
0010
0010
0010
,
0020
0000
0030
0000
,
0100
0000
0010
0000
,
1000
0000
0010
0000
,
1000
1000
1000
1000
,
2000
0000
3000
0000
,
1000
0000
0100
0000
,
0010
0000
1000
0000
,
0001
0000
0100
0000
,
0001
0000
0010
0000
,
0100
0000
0010
0000
,
1000
0000
0100
0000
,
0010
0000
0001
0000
,
0010
0000
0100
0000
,
1000
0000
0100
0000
,
0010
0000
0100
0000
,
2000
3000
0000
0000
;
