#TITLE:Puffy Amiyumi - K2g;
#SUBTITLE:;
#ARTIST:Dancing Monkeys Project;
#TITLETRANSLIT:;
#SUBTITLETRANSLIT:;
#ARTISTTRANSLIT:;
#GENRE:;
#CREDIT:Gorilla v1.1.3 (Dancing Monkeys v1.06);
#BANNER:hqdefault.png;
#BACKGROUND:maxresdefault.png;
#LYRICSPATH:;
#CDTITLE:;
#MUSIC:Puffy Amiyumi - K2g.mp3;
#OFFSET:-1.204762;
#SAMPLESTART:37.966667;
#SAMPLELENGTH:12.000000;
#SELECTABLE:YES;
#BPMS:0.000000=163.212006
;
#STOPS:
;
#BGCHANGES:;
#KEYSOUNDS:;
#ATTACKS:;

//---------------dance-single - Basic----------------
#NOTES:
     dance-single:
     Basic:
     Easy:
     5:
     0.105631,0.105097,0.000000,0.021642,0.000000,205.000000,205.000000,0.000000,6.000000,0.000000,0.000000,0.105631,0.105097,0.000000,0.021642,0.000000,205.000000,205.000000,0.000000,6.000000,0.000000,0.000000:
1000
1000
1000
1000
,
1000
0000
0010
0010
,
0010
0010
0010
0000
,
1000
0100
0010
0100
,
1000
1000
0001
0010
,
0001
1000
0100
0010
,
0001
0010
0001
0001
,
0001
0000
1000
1000
,
1000
0010
0100
0010
,
1000
0010
1000
1000
,
1000
0001
0100
1000
,
1000
0000
0010
0100
,
0001
1000
0001
0001
,
1000
0000
0010
0001
,
1000
0010
0100
0001
,
1000
0100
0010
0001
,
0001
0010
0100
0001
,
1000
0100
2000
0000
,
0000
0000
3000
0000
,
0000
0000
0000
0010
,
0010
0100
0010
0100
,
0001
0010
0100
0010
,
0001
0100
1000
0010
,
1000
0010
1000
0100
,
0001
0010
1000
0010
,
0001
1000
0020
0000
,
0000
0000
0030
0000
,
0000
0000
0010
0001
,
0100
0010
0100
0000
,
0000
0000
0100
0010
,
1000
0010
0100
0000
,
0000
0000
0100
0010
,
0001
1000
0100
0000
,
0001
0100
0002
0000
,
0000
0000
0000
0003
,
0100
1000
0001
0100
,
1000
0010
0100
0000
,
0000
0001
0100
0010
,
1000
1000
0001
0000
,
0000
0001
0100
0010
,
0001
0100
0010
0000
,
1000
1000
0020
0000
,
0000
0000
0000
0030
,
0000
1000
0100
0010
,
0001
0010
1000
0001
,
1000
0001
0100
0010
,
0001
1000
0100
0010
,
1000
0100
1000
0001
,
1000
0001
0100
0010
,
0001
0100
1000
0001
,
1000
0100
0010
1000
,
0001
0100
0001
0100
,
1000
0001
0100
0001
,
1000
0100
0010
0001
,
1000
0001
0100
0010
,
1000
0001
0020
0000
,
0000
0000
0000
0030
,
0000
0000
0010
0100
,
1000
0100
0010
0001
,
0100
0100
0001
1000
,
0010
0100
0001
1000
,
0010
0100
0001
0010
,
1000
0010
0100
0001
,
0001
0010
0020
0000
,
0000
0000
0000
0030
;

//---------------dance-single - Basic----------------
#NOTES:
     dance-single:
     :
     Beginner:
     5:
     0.060287,0.105097,0.000000,0.021642,0.000000,117.000000,117.000000,0.000000,6.000000,0.000000,0.000000,0.060287,0.105097,0.000000,0.021642,0.000000,117.000000,117.000000,0.000000,6.000000,0.000000,0.000000:
// measure 0
0010
0000
1000
0000
,  // measure 1
0010
0000
1000
0000
,  // measure 2
0001
0000
0010
0000
,  // measure 3
1000
0000
0010
0000
,  // measure 4
0100
0000
0001
0000
,  // measure 5
0010
0000
0100
0000
,  // measure 6
0001
0000
1000
0000
,  // measure 7
0001
0000
0010
0000
,  // measure 8
1000
0000
0001
0000
,  // measure 9
0100
0000
0010
0000
,  // measure 10
1000
0000
0001
0000
,  // measure 11
1000
0000
0010
0000
,  // measure 12
0001
0000
0010
0000
,  // measure 13
1000
0000
0010
0000
,  // measure 14
1000
0000
0100
0000
,  // measure 15
1000
0000
0010
0000
,  // measure 16
0001
0000
0100
0000
,  // measure 17
1000
0000
2000
0000
,  // measure 18
0000
0000
3000
0000
,  // measure 19
0000
0000
0000
1000
,  // measure 20
0000
0001
0000
0100
,  // measure 21
0001
0000
0100
0000
,  // measure 22
0001
0000
0100
0000
,  // measure 23
1000
0000
0010
0010
,  // measure 24
0010
1000
1000
1000
,  // measure 25
0010
0010
0020
0000
,  // measure 26
0000
0000
0030
0000
,  // measure 27
0000
0000
0010
0000
,  // measure 28
1000
0000
0100
0000
,  // measure 29
0000
0000
0001
0000
,  // measure 30
1000
0000
0100
0000
,  // measure 31
0000
0000
0100
0000
,  // measure 32
0001
0000
0100
0000
,  // measure 33
0010
0000
0002
0000
,  // measure 34
0000
0000
0000
0003
,  // measure 35
0000
1000
0000
0100
,  // measure 36
0000
0010
0000
0100
,  // measure 37
0000
0001
0000
0010
,  // measure 38
0000
1000
0000
0010
,  // measure 39
0000
0001
0000
0010
,  // measure 40
0000
0100
0000
0010
,  // measure 41
0000
1000
0020
0000
,  // measure 42
0000
0000
0000
0030
,  // measure 43
0000
1000
0000
0010
,  // measure 44
0000
0001
0000
0010
,  // measure 45
0000
0001
0000
0010
,  // measure 46
0000
1000
0000
0010
,  // measure 47
0000
0100
0000
0010
,  // measure 48
0000
0001
0000
0010
,  // measure 49
0000
0100
0000
0001
,  // measure 50
0000
0100
0000
1000
,  // measure 51
0000
0010
0000
0100
,  // measure 52
0000
0010
0000
0001
,  // measure 53
0000
0100
0000
0010
,  // measure 54
0000
0001
0000
0010
,  // measure 55
0000
0010
0020
0000
,  // measure 56
0000
0000
0000
0030
,  // measure 57
0000
0000
0010
0000
,  // measure 58
1000
0000
0010
0000
,  // measure 59
0100
0000
0001
0000
,  // measure 60
0010
0000
0001
0000
,  // measure 61
0010
0000
0001
0000
,  // measure 62
1000
0000
0100
0000
,  // measure 63
0001
0000
0020
0000
,  // measure 64
0000
0000
0000
0030
;
