#VERSION:0.83;
#TITLE:JJK OP - SPECIAL;
#SUBTITLE:;
#ARTIST:Jujitsu Kaisen;
#TITLETRANSLIT:;
#SUBTITLETRANSLIT:;
#ARTISTTRANSLIT:;
#GENRE:;
#ORIGIN:;
#CREDIT:Gorilla v1.1.3 (Dancing Monkeys v1.06);
#BANNER:;
#BACKGROUND:;
#PREVIEWVID:;
#JACKET:;
#CDIMAGE:;
#DISCIMAGE:;
#LYRICSPATH:;
#CDTITLE:;
#MUSIC:JJK OP - SPECIAL.mp3;
#OFFSET:-0.064535;
#SAMPLESTART:51.347977;
#SAMPLELENGTH:12.000000;
#SELECTABLE:YES;
#BPMS:0.000=116.997;
#STOPS:;
#DELAYS:;
#WARPS:;
#TIMESIGNATURES:0.000=4=4;
#TICKCOUNTS:0.000=4;
#COMBOS:0.000=1;
#SPEEDS:0.000=1.000=0.000=0;
#SCROLLS:0.000=1.000;
#FAKES:;
#LABELS:0.000=Song Start;
#BGCHANGES:;
#KEYSOUNDS:;
#ATTACKS:
;

//---------------dance-single - Basic----------------
#NOTEDATA:;
#CHARTNAME:Basic;
#STEPSTYPE:dance-single;
#DESCRIPTION:Basic;
#CHARTSTYLE:;
#DIFFICULTY:Easy;
#METER:3;
#RADARVALUES:0.191565,0.209455,0.000000,0.022165,0.000000,121.000000,121.000000,0.000000,2.000000,0.000000,0.000000,0.000000,0.000000,0.000000,0.191565,0.209455,0.000000,0.022165,0.000000,121.000000,121.000000,0.000000,2.000000,0.000000,0.000000,0.000000,0.000000,0.000000;
#CREDIT:Basic;
#NOTES:
0000
0000
0000
0000
,
1000
0000
0001
0000
,
1000
0000
0001
0000
,
1000
0000
0001
0000
,
1000
0000
0000
0000
,
0001
0001
0001
0000
,
1000
0010
1000
0000
,
1000
0000
0001
0000
,
0001
0001
0010
0010
,
0000
0001
0001
0010
,
0010
1000
1000
0000
,
0001
0001
0001
0000
,
0001
0001
0100
0000
,
1000
1000
0001
0001
,
1000
1000
1000
0000
,
0001
0010
0001
0000
,
1000
1000
0001
0001
,
0000
0000
0001
0000
,
1000
0000
0001
0000
,
0010
0000
1000
0000
,
0010
0000
0001
0000
,
1000
0000
0010
0000
,
0001
0000
0010
0000
,
0001
0000
1000
0000
,
0002
0000
0003
0000
,
0000
0001
0001
0010
,
0010
1000
1000
0010
,
0010
1000
1000
1000
,
1000
0001
0001
1000
,
1000
0010
0010
0010
,
1000
1000
0100
0001
,
0001
0010
0010
0100
,
0100
0001
0100
0100
,
1000
0010
0010
0100
,
0100
0100
1000
0001
,
1000
0010
1000
0100
,
1000
0100
1000
0000
,
0000
1000
0100
0010
,
1000
0010
0010
1000
,
1000
1000
0001
0001
,
0001
0100
0100
0100
,
0000
0002
0000
0000
,
0003
0000
0000
0000
;

//---------------dance-single - Basic----------------
#NOTEDATA:;
#CHARTNAME:;
#STEPSTYPE:dance-single;
#DESCRIPTION:Basic;
#CHARTSTYLE:;
#DIFFICULTY:Beginner;
#METER:3;
#RADARVALUES:0.123488,0.116364,0.000000,0.000000,0.000000,78.000000,78.000000,0.000000,0.000000,0.000000,0.000000,0.000000,0.000000,0.000000,0.123488,0.116364,0.000000,0.000000,0.000000,78.000000,78.000000,0.000000,0.000000,0.000000,0.000000,0.000000,0.000000,0.000000;
#CREDIT:;
#NOTES:
// measure 0
0000
0000
0000
0000
,  // measure 1
1000
0000
0001
0000
,  // measure 2
1000
0000
0001
0000
,  // measure 3
1000
0000
0001
0000
,  // measure 4
1000
0000
0000
0000
,  // measure 5
0001
0000
0001
0000
,  // measure 6
1000
0000
1000
0000
,  // measure 7
1000
0000
0001
0000
,  // measure 8
0001
0000
0010
0000
,  // measure 9
0000
0001
0000
0010
,  // measure 10
0000
1000
1000
0000
,  // measure 11
0001
0000
0001
0000
,  // measure 12
0001
0000
0100
0000
,  // measure 13
1000
0000
0001
0000
,  // measure 14
1000
0000
1000
0000
,  // measure 15
0001
0000
0001
0000
,  // measure 16
1000
0000
0001
0000
,  // measure 17
0000
0000
0001
0000
,  // measure 18
1000
0000
0001
0000
,  // measure 19
0010
0000
1000
0000
,  // measure 20
0010
0000
0001
0000
,  // measure 21
1000
0000
0010
0000
,  // measure 22
0001
0000
0010
0000
,  // measure 23
0001
0000
1000
0000
,  // measure 24
0001
0000
0000
0000
,  // measure 25
0000
0001
0000
0010
,  // measure 26
0000
1000
0000
0010
,  // measure 27
0000
1000
0000
1000
,  // measure 28
0000
0001
0000
1000
,  // measure 29
0000
0010
0000
0010
,  // measure 30
0000
1000
0000
0001
,  // measure 31
0000
0010
0000
0100
,  // measure 32
0000
0001
0000
0100
,  // measure 33
0000
0010
0000
0100
,  // measure 34
0000
0100
0000
0001
,  // measure 35
0000
0010
0000
0100
,  // measure 36
0000
0100
0000
0000
,  // measure 37
0000
1000
0000
0010
,  // measure 38
0000
0010
0000
1000
,  // measure 39
0000
1000
0000
0001
,  // measure 40
0000
0100
0000
0100
,  // measure 41
0000
0001
0000
0000
,  // measure 42
0001
0000
0000
0000
;
