#VERSION:0.83;
#TITLE:Josie and the Pussycats;
#SUBTITLE:;
#ARTIST:josie & the pussycats;
#TITLETRANSLIT:;
#SUBTITLETRANSLIT:;
#ARTISTTRANSLIT:;
#GENRE:;
#ORIGIN:;
#CREDIT:;
#BANNER:backdrop-1280.png;
#BACKGROUND:38e2badc672fd59c5d04750af388ec18.png;
#PREVIEWVID:;
#JACKET:;
#CDIMAGE:;
#DISCIMAGE:;
#LYRICSPATH:;
#CDTITLE:;
#MUSIC:Josie and the Pussycats Josie Jam -W_GRMQuAiyg-192k-1711317301.mp3;
#OFFSET:0.000000;
#SAMPLESTART:0.000000;
#SAMPLELENGTH:12.000000;
#SELECTABLE:YES;
#BPMS:0.000=118.000,
27.000=120.000,
45.000=122.000,
64.000=116.000,
99.000=112.000,
142.000=120.000;
#STOPS:;
#DELAYS:;
#WARPS:;
#TIMESIGNATURES:0.000=4=4;
#TICKCOUNTS:0.000=4;
#COMBOS:0.000=1;
#SPEEDS:0.000=2.000=0.000=0,
27.000=1.600=0.000=0,
45.000=1.700=0.000=0,
64.000=1.400=0.000=0,
99.000=1.300=0.000=0,
142.000=2.600=0.000=0;
#SCROLLS:0.000=1.000;
#FAKES:;
#LABELS:0.000=Song Start;
#BGCHANGES:;
#KEYSOUNDS:;
#ATTACKS:
;

//---------------dance-single - ----------------
#NOTEDATA:;
#CHARTNAME:;
#STEPSTYPE:dance-single;
#DESCRIPTION:;
#CHARTSTYLE:;
#DIFFICULTY:Easy;
#METER:1;
#RADARVALUES:0.142294,0.207599,0.000000,0.104848,0.000000,95.000000,95.000000,0.000000,10.000000,0.000000,0.000000,0.000000,0.000000,0.000000,0.142294,0.207599,0.000000,0.104848,0.000000,95.000000,95.000000,0.000000,10.000000,0.000000,0.000000,0.000000,0.000000,0.000000;
#CREDIT:;
#NOTES:
// measure 0
0000
0000
2000
0000
,  // measure 1
0000
0000
3000
0002
,  // measure 2
0000
0003
0000
1000
,  // measure 3
0000
0001
0000
0100
,  // measure 4
0000
0010
0000
1000
,  // measure 5
0000
0001
0000
0100
,  // measure 6
0000
0100
0000
1000
,  // measure 7
1000
1000
0010
0010
,  // measure 8
1000
1000
0001
0001
,  // measure 9
0010
0010
0100
0100
,  // measure 10
1000
1000
0010
0010
,  // measure 11
0001
0001
0100
0100
,  // measure 12
1000
1000
0010
1000
,  // measure 13
1000
0100
0010
1000
,  // measure 14
0001
0010
0100
1000
,  // measure 15
0100
0001
0010
1000
,  // measure 16
0000
0000
0001
0000
,  // measure 17
1000
0000
0010
0000
,  // measure 18
0100
0000
0001
0000
,  // measure 19
0100
0000
0010
0000
,  // measure 20
1000
0000
0100
0000
,  // measure 21
0001
0000
0010
0000
,  // measure 22
0100
0000
0010
0000
,  // measure 23
1000
0000
0001
0000
,  // measure 24
0100
0000
1000
0000
,  // measure 25
0200
0000
0000
0000
,  // measure 26
0300
0000
0002
0000
,  // measure 27
0000
0000
0000
0003
,  // measure 28
2000
0000
0000
0000
,  // measure 29
0000
0000
0000
3000
,  // measure 30
0000
0000
0000
0020
,  // measure 31
0000
0000
0000
0030
,  // measure 32
2000
0000
3000
0200
,  // measure 33
0000
0300
0002
0000
,  // measure 34
0000
0003
0000
0000
,  // measure 35
0000
0000
0000
0000
,  // measure 36
0000
0000
0000
0000
,  // measure 37
0000
0000
0010
0010
,  // measure 38
1000
1000
0010
0100
,  // measure 39
0001
0100
0010
1000
,  // measure 40
1000
0001
0001
1000
,  // measure 41
1000
0001
0001
1000
,  // measure 42
1000
0001
0010
0100
,  // measure 43
1000
2000
0000
0000
,  // measure 44
3000
0000
0000
0000
;
