#TITLE:Johnny Test Theme Song (HD);
#SUBTITLE:;
#ARTIST:Dancing Monkeys Project;
#TITLETRANSLIT:;
#SUBTITLETRANSLIT:;
#ARTISTTRANSLIT:;
#GENRE:;
#CREDIT:Gorilla v1.1.3 (Dancing Monkeys v1.06);
#BANNER:hq720.png;
#BACKGROUND:1-1775975871.png;
#LYRICSPATH:;
#CDTITLE:;
#MUSIC:Johnny Test Theme Song (HD).mp3;
#OFFSET:-0.823583;
#SAMPLESTART:32.014149;
#SAMPLELENGTH:12.000000;
#SELECTABLE:YES;
#BPMS:0.000000=200.059998
;
#STOPS:
;
#BGCHANGES:;
#KEYSOUNDS:;
#ATTACKS:;

//---------------dance-single - Basic----------------
#NOTES:
     dance-single:
     Basic:
     Easy:
     6:
     0.198225,0.192483,0.000000,0.016922,0.000000,82.000000,82.000000,0.000000,1.000000,0.000000,0.000000,0.198225,0.192483,0.000000,0.016922,0.000000,82.000000,82.000000,0.000000,1.000000,0.000000,0.000000:
0000
1000
0000
0000
,
0000
1000
0000
0000
,
0000
1000
0000
0000
,
0000
1000
0000
0010
,
0000
1000
0000
0100
,
0000
0100
0000
0001
,
0000
0100
0000
1000
,
0000
0100
0000
1000
,
0000
0010
0000
1000
,
0000
0100
0000
0001
,
0000
0010
0000
1000
,
0000
0010
0000
0010
,
0000
0001
0000
0010
,
0000
0010
0000
0100
,
0000
0010
0000
1000
,
0000
1000
0000
1000
,
0000
0100
0000
0001
,
0000
0010
0000
1000
,
0000
0010
0000
0100
,
0000
1000
0000
0001
,
0000
0010
0000
0100
,
0000
0010
0000
0010
,
0000
1000
0000
0010
,
0000
0001
0000
1000
,
0000
0010
0000
0010
,
0000
0100
0000
1000
,
0000
0001
0000
0001
,
0000
0100
0000
1000
,
0000
1000
0000
0010
,
0000
0100
0000
0001
,
0000
1000
0000
0001
,
0000
0100
0000
0010
,
0000
0010
0000
0100
,
0000
0001
0000
0010
,
0000
1000
0000
0010
,
0000
0001
0000
1000
,
0000
0100
0000
0001
,
0000
0010
0000
0010
,
0000
0100
0000
1000
,
0000
0010
0000
1000
,
2000
0000
0000
0000
,
0000
0000
0000
0000
,
0000
0000
0000
0000
,
0000
0000
0000
3000
,
0010
0100
1000
0000
,
0000
0000
0100
0000
;
