#TITLE:Jiggly;
#SUBTITLE:;
#ARTIST:Pokemon;
#TITLETRANSLIT:;
#SUBTITLETRANSLIT:;
#ARTISTTRANSLIT:;
#GENRE:;
#CREDIT:Gorilla v1.1.3 (Dancing Monkeys v1.06);
#BANNER:maxresdefault.png;
#BACKGROUND:sddefault.png;
#LYRICSPATH:;
#CDTITLE:;
#MUSIC:Jiggly.mp3;
#OFFSET:-1.396349;
#SAMPLESTART:47.557343;
#SAMPLELENGTH:12.000000;
#SELECTABLE:YES;
#BPMS:0.000000=129.979996
;
#STOPS:
;
#BGCHANGES:;
#KEYSOUNDS:;
#ATTACKS:;

//---------------dance-single - Basic----------------
#NOTES:
     dance-single:
     Basic:
     Easy:
     5:
     0.183628,0.213425,0.137433,0.016169,0.000000,159.000000,142.000000,17.000000,2.000000,0.000000,0.000000,0.183628,0.213425,0.137433,0.016169,0.000000,159.000000,142.000000,17.000000,2.000000,0.000000,0.000000:
// measure 0
1000
2000
3000
0000
,  // measure 1
0000
0001
0000
0100
,  // measure 2
0000
0001
0000
0100
,  // measure 3
0000
1000
0000
1000
,  // measure 4
0000
0001
0000
0100
,  // measure 5
0000
1001
0000
0010
,  // measure 6
0000
0100
0000
1000
,  // measure 7
0000
1001
0000
0100
,  // measure 8
0000
0010
0000
0100
,  // measure 9
0000
0001
0000
1000
,  // measure 10
0000
0010
0000
0001
,  // measure 11
0000
0001
0000
1001
,  // measure 12
0000
0001
0000
0100
,  // measure 13
0000
0010
0001
0001
,  // measure 14
0001
0000
0010
0000
,  // measure 15
0100
0000
0010
0000
,  // measure 16
1000
0000
0010
0000
,  // measure 17
1000
0000
0010
0000
,  // measure 18
0100
0000
0010
0000
,  // measure 19
0001
1001
0000
0010
,  // measure 20
0000
1000
0000
0100
,  // measure 21
0000
1001
0000
0100
,  // measure 22
0000
0010
0000
0100
,  // measure 23
0000
1001
0000
0100
,  // measure 24
0000
0001
0000
0100
,  // measure 25
0000
0001
0000
0100
,  // measure 26
0000
0001
0000
0100
,  // measure 27
0000
0010
0000
0100
,  // measure 28
0000
0001
0001
0001
,  // measure 29
0000
0001
0000
0100
,  // measure 30
0000
0001
0001
0001
,  // measure 31
0000
1000
1000
1000
,  // measure 32
0000
0001
0001
0001
,  // measure 33
0000
0001
0000
0100
,  // measure 34
0000
0001
0000
0100
,  // measure 35
0000
1001
0000
0100
,  // measure 36
0000
0001
0000
0100
,  // measure 37
0000
1001
0000
0100
,  // measure 38
0000
0001
0000
0100
,  // measure 39
0000
1001
0000
0001
,  // measure 40
0000
0001
0000
0010
,  // measure 41
0000
0100
0100
0000
,  // measure 42
1001
0000
0100
0000
,  // measure 43
1001
0000
0010
0000
,  // measure 44
1001
0000
0100
0000
,  // measure 45
1001
0000
1000
0000
,  // measure 46
0010
0000
0100
0000
,  // measure 47
1000
0000
0010
0000
,  // measure 48
1000
0000
0100
0000
,  // measure 49
0010
0000
1000
0000
,  // measure 50
0010
0000
0100
0000
,  // measure 51
0100
1001
0000
0100
,  // measure 52
0000
1001
0000
0100
,  // measure 53
0000
1001
0000
0100
,  // measure 54
0000
0001
0000
0100
,  // measure 55
0000
1001
0000
0100
,  // measure 56
0000
0001
0000
0010
,  // measure 57
0000
0010
0000
0100
,  // measure 58
0000
0001
0000
0100
,  // measure 59
0000
0001
0000
0100
,  // measure 60
0000
0001
0001
0001
,  // measure 61
0000
0010
0000
0100
,  // measure 62
0000
0001
0001
0001
,  // measure 63
0000
1000
1000
1000
,  // measure 64
0000
0001
0001
0001
,  // measure 65
0000
2000
0000
0000
,  // measure 66
3000
0000
0000
0000
;
