#VERSION:0.83;
#TITLE:JellyFish Jam;
#SUBTITLE:;
#ARTIST:Dancing Monkeys Project;
#TITLETRANSLIT:;
#SUBTITLETRANSLIT:;
#ARTISTTRANSLIT:;
#GENRE:;
#ORIGIN:;
#CREDIT:Gorilla v1.1.3 (Dancing Monkeys v1.06);
#BANNER:0000.png;
#BACKGROUND:jellyfish_jam_by_paperbagedhead_dd10wvz-pre.png;
#PREVIEWVID:;
#JACKET:;
#CDIMAGE:;
#DISCIMAGE:;
#LYRICSPATH:;
#CDTITLE:;
#MUSIC:onlymp3.to - jellyfish jam-oWqAf4eex14-192k-1696894472.mp3;
#OFFSET:-1.290021;
#SAMPLESTART:49.279602;
#SAMPLELENGTH:12.000000;
#SELECTABLE:YES;
#BPMS:0.000=125.027;
#STOPS:;
#DELAYS:;
#WARPS:;
#TIMESIGNATURES:0.000=4=4;
#TICKCOUNTS:0.000=4;
#COMBOS:0.000=1;
#SPEEDS:0.000=1.000=0.000=0;
#SCROLLS:0.000=1.000;
#FAKES:;
#LABELS:0.000=Song Start;
#BGCHANGES:;
#KEYSOUNDS:;
#ATTACKS:
;

//---------------dance-single - Basic----------------
#NOTEDATA:;
#CHARTNAME:Basic;
#STEPSTYPE:dance-single;
#DESCRIPTION:Basic;
#CHARTSTYLE:;
#DIFFICULTY:Easy;
#METER:5;
#RADARVALUES:0.285497,0.223758,0.000000,0.000000,0.000000,210.000000,210.000000,0.000000,0.000000,0.000000,0.000000,0.000000,0.000000,0.000000,0.285497,0.223758,0.000000,0.000000,0.000000,210.000000,210.000000,0.000000,0.000000,0.000000,0.000000,0.000000,0.000000,0.000000;
#CREDIT:Basic;
#NOTES:
// measure 0
1000
0010
0100
0010
,  // measure 1
0100
1000
0010
0100
,  // measure 2
1000
0010
1000
0010
,  // measure 3
0100
0001
0100
1000
,  // measure 4
0100
0010
1000
0100
,  // measure 5
1000
0001
0010
0100
,  // measure 6
1000
1000
0001
0001
,  // measure 7
0010
0100
0010
0100
,  // measure 8
0001
0010
0100
0010
,  // measure 9
1000
0100
0010
0010
,  // measure 10
1000
0100
0010
0001
,  // measure 11
1000
0100
0010
0010
,  // measure 12
1000
0100
0010
0001
,  // measure 13
1000
0100
0010
0010
,  // measure 14
1000
0100
0010
0001
,  // measure 15
1000
0100
0010
0001
,  // measure 16
1000
0010
0100
0001
,  // measure 17
1000
0001
0100
0010
,  // measure 18
1000
0100
0010
0001
,  // measure 19
1000
0001
0100
0010
,  // measure 20
1000
0100
0010
0001
,  // measure 21
1000
0100
0010
0001
,  // measure 22
0001
0010
0100
1000
,  // measure 23
0001
0100
0010
1000
,  // measure 24
1000
0100
0010
0001
,  // measure 25
1000
0100
0010
0010
,  // measure 26
1000
0100
0010
0001
,  // measure 27
1000
0001
0100
0010
,  // measure 28
1000
0001
0010
0100
,  // measure 29
1000
0001
0100
0010
,  // measure 30
0001
1000
0010
0100
,  // measure 31
0001
0100
0010
1000
,  // measure 32
1000
0001
0100
0010
,  // measure 33
0001
0100
0010
1000
,  // measure 34
1000
0010
0100
0001
,  // measure 35
1000
0010
0100
0001
,  // measure 36
1000
0001
0100
0010
,  // measure 37
0001
0100
0010
1000
,  // measure 38
1000
0001
0100
0010
,  // measure 39
0001
1000
0010
0100
,  // measure 40
1000
0001
0010
0100
,  // measure 41
0001
1000
0100
0010
,  // measure 42
1000
0001
0100
0010
,  // measure 43
0001
0001
1000
1000
,  // measure 44
1000
0001
0100
0010
,  // measure 45
0001
1000
0100
0010
,  // measure 46
1000
0001
0100
0010
,  // measure 47
0001
0010
0001
0100
,  // measure 48
1000
0001
0100
0010
,  // measure 49
1000
0001
0100
0010
,  // measure 50
0001
1000
0010
0100
,  // measure 51
1000
0001
0100
1000
,  // measure 52
1000
0100
0000
0000
;

//---------------dance-single - Standard----------------
#NOTEDATA:;
#CHARTNAME:Standard;
#STEPSTYPE:dance-single;
#DESCRIPTION:Standard;
#CHARTSTYLE:;
#DIFFICULTY:Medium;
#METER:7;
#RADARVALUES:0.424167,0.397792,0.047583,0.000000,0.000000,312.000000,307.000000,5.000000,0.000000,0.000000,0.000000,0.000000,0.000000,0.000000,0.424167,0.397792,0.047583,0.000000,0.000000,312.000000,307.000000,5.000000,0.000000,0.000000,0.000000,0.000000,0.000000,0.000000;
#CREDIT:Standard;
#NOTES:
0011
0001
0010
0001
0100
0010
0100
0010
,
0001
0000
0100
0000
0001
0100
0010
0001
,
0001
0000
0101
0000
0100
1000
0010
0000
,
1100
0000
0010
0001
0100
1000
0100
1000
,
1000
0010
1000
0000
0100
0000
1000
0000
,
1000
0000
0010
1000
0100
0010
0100
0000
,
1000
0000
1001
0000
0100
0010
0100
0010
,
1000
0100
0100
0000
0010
0001
0100
0010
,
0001
0100
0010
0000
1000
0000
0101
0000
,
0001
0010
0001
0000
1000
0100
0010
0001
,
0001
1000
0001
0000
0010
1000
0010
0001
,
0001
0010
0001
0000
1000
0100
0010
0001
,
1000
0001
0100
1000
0100
0010
0001
0100
,
0001
0010
0001
0000
1000
0100
0010
0001
,
1000
0001
0100
1000
0100
0010
0001
0100
,
0001
1000
0001
0000
0010
1000
0010
0001
,
0001
1000
0001
0000
0100
1000
0100
0001
,
0001
0010
0001
0000
0010
0000
0100
0000
,
0001
1000
0001
0000
0010
1000
0010
0001
,
0001
0010
0001
0000
0010
0000
0100
0000
,
0001
1000
0001
0000
0010
1000
0010
0001
,
0001
1000
0001
0000
0100
1000
0100
0001
,
0001
1000
0001
0000
0010
1000
0010
0001
,
0001
1000
0001
0000
0010
1000
0010
0001
,
1000
0001
0100
1000
0100
0010
0001
0100
,
0001
0010
0001
0000
1000
0100
0010
0001
,
0001
1000
0001
0000
0010
1000
0010
0001
,
0001
0010
0001
0000
0010
0000
0100
0000
,
1000
0100
1000
0000
0100
0000
0010
0000
,
0001
0010
0001
0000
0010
0000
0100
0000
,
1000
0100
1000
0000
0100
0000
0010
0000
,
0001
0000
0100
0100
0001
0000
0100
0000
,
0001
0010
0001
0000
0010
0000
0100
0000
,
0001
0000
0100
0100
0001
0000
0100
0000
,
0001
0000
0100
0100
0001
0000
0100
0000
,
0001
0000
0010
0010
0001
0000
0010
0000
,
0001
0010
0001
0000
0010
0000
0100
0000
,
0001
0000
0100
0100
0001
0000
0100
0000
,
0001
0010
0001
0000
0010
0000
0100
0000
,
0001
0100
0001
0000
0100
0000
0010
0000
,
0001
0010
0001
0000
0010
0000
0100
0000
,
1000
0010
1000
0000
0010
0000
0100
0000
,
0001
0010
0001
0000
0010
0000
0100
0000
,
1000
0010
0010
0000
0100
0000
0100
0010
,
0001
0010
0001
0000
0010
0000
0100
0000
,
1000
0100
1000
0000
0100
0000
0010
0000
,
0001
0100
0001
0000
0100
0000
0010
0000
,
1000
0010
1000
0000
0100
0000
1000
0000
,
0001
0010
0001
0000
0010
0000
0100
0000
,
1000
0010
1000
0000
0010
0000
0100
0000
,
0001
0100
0001
0000
0100
0000
0010
0000
,
1000
0000
0000
0000
0100
1000
0010
0000
,
0001
0000
0100
0000
0000
0000
0000
0000
,
;

//---------------dance-single - Heavy----------------
#NOTEDATA:;
#CHARTNAME:Heavy;
#STEPSTYPE:dance-single;
#DESCRIPTION:Heavy;
#CHARTSTYLE:;
#DIFFICULTY:Hard;
#METER:8;
#RADARVALUES:0.512535,0.449657,0.057099,0.000000,0.000000,377.000000,371.000000,6.000000,0.000000,0.000000,0.000000,0.000000,0.000000,0.000000,0.512535,0.449657,0.057099,0.000000,0.000000,377.000000,371.000000,6.000000,0.000000,0.000000,0.000000,0.000000,0.000000,0.000000;
#CREDIT:Heavy;
#NOTES:
0101
1000
0100
1000
0001
0100
0001
1000
,
0001
0010
0100
1000
0001
0010
0100
0000
,
1010
0000
0101
0000
0001
0000
0100
0000
,
1010
0000
0001
0100
0010
0100
0001
0010
,
1000
0010
0001
0000
0100
1000
0100
0010
,
0001
0000
0100
0001
0100
0001
1000
0000
,
0001
0000
0110
0000
0100
0010
0100
0010
,
0001
0000
0001
0000
0010
0100
0010
0001
,
1000
0001
0100
0001
1000
0000
0101
0000
,
1000
0100
0010
0000
0001
0100
0010
1000
,
0001
0100
0001
0010
0100
1000
0001
0010
,
1000
0100
0010
0000
0001
0100
0010
1000
,
0001
0100
0001
0100
0001
0010
0100
1000
,
1000
0100
0010
0000
0001
0100
0010
1000
,
0001
0100
0001
0100
0001
0010
0100
1000
,
0001
0100
0001
0010
0100
1000
0001
0010
,
1000
0010
1000
0100
0010
0001
1000
0100
,
0001
0100
0001
0000
0100
0010
1000
0001
,
0001
0100
0001
0010
0100
1000
0001
0010
,
0001
0100
0001
0000
0100
0010
1000
0001
,
0001
0100
0001
0010
0100
1000
0001
0010
,
0001
0010
0001
0100
0010
1000
0001
0100
,
0001
0100
0001
0010
0100
1000
0001
0010
,
1000
0010
1000
0100
0010
0001
1000
0100
,
0001
0100
0001
0100
0001
0010
0100
1000
,
1000
0100
0010
0000
0001
0100
0010
1000
,
0001
0100
0001
0010
0100
1000
0001
0010
,
0001
0100
0001
0000
0100
0010
1000
0001
,
1000
0010
1000
0000
0010
0100
0001
1000
,
1000
0100
1000
0000
0100
0010
0001
1000
,
1000
0010
1000
0000
0010
0100
0001
1000
,
1000
0000
0100
0100
1000
0010
1000
0010
,
0001
0100
0001
0000
0100
0010
1000
0001
,
1000
0000
0100
0100
1000
0010
1000
0010
,
1000
0000
0010
0010
1000
0100
1000
0100
,
1000
0000
0010
0010
1000
0100
1000
0100
,
0001
0100
0001
0000
0100
0010
1000
0001
,
1000
0000
0100
0100
1000
0010
1000
0010
,
0001
0100
0001
0000
0100
0010
1000
0001
,
1000
0100
1000
0000
0100
0010
0001
1000
,
0001
0010
0001
0000
0010
0100
1000
0001
,
0001
0010
0001
0000
0010
0100
1000
0001
,
0001
0010
0001
0000
0010
0100
1000
0001
,
0001
0010
0010
0000
0001
0000
0001
0010
,
0001
0100
0001
0000
0100
0010
1000
0001
,
0001
0100
0001
0000
0100
0010
1000
0001
,
0001
0010
0001
0000
0010
0100
1000
0001
,
1000
0010
0001
0000
0100
1000
0100
0010
,
0001
0100
0001
0000
0100
0010
1000
0001
,
0001
0100
0001
0000
0100
0010
1000
0001
,
1000
0010
1000
0000
0010
0100
0001
1000
,
1000
0000
1000
0000
0100
0001
0100
1000
,
1000
0000
0001
0000
0001
0000
0000
0000
,
;
