#VERSION:0.83;
#TITLE:Black Rock Stadium (Jak & Daxter);
#SUBTITLE:Playstation Allstars;
#ARTIST:Jak & Daxter;
#TITLETRANSLIT:;
#SUBTITLETRANSLIT:;
#ARTISTTRANSLIT:;
#GENRE:;
#ORIGIN:;
#CREDIT:Gorilla v1.1.3 (Dancing Monkeys v1.06);
#BANNER:images.png;
#BACKGROUND:FTWdWgmWYAAYbzU.png;
#PREVIEWVID:;
#JACKET:;
#CDIMAGE:;
#DISCIMAGE:;
#LYRICSPATH:;
#CDTITLE:;
#MUSIC:Black Rock Stadium (Jak & Daxter) - PlayStation All-Stars Battle Royale (OST).mp3;
#OFFSET:-0.508095;
#SAMPLESTART:40.764332;
#SAMPLELENGTH:12.000000;
#SELECTABLE:YES;
#BPMS:0.000=149.045;
#STOPS:;
#DELAYS:;
#WARPS:;
#TIMESIGNATURES:0.000=4=4;
#TICKCOUNTS:0.000=4;
#COMBOS:0.000=1;
#SPEEDS:0.000=1.000=0.000=0;
#SCROLLS:0.000=1.000;
#FAKES:;
#LABELS:0.000=Song Start;
#BGCHANGES:;
#KEYSOUNDS:;
#ATTACKS:
;

//---------------dance-single - Basic----------------
#NOTEDATA:;
#CHARTNAME:Basic;
#STEPSTYPE:dance-single;
#DESCRIPTION:Basic;
#CHARTSTYLE:;
#DIFFICULTY:Easy;
#METER:3;
#RADARVALUES:0.122383,0.111100,0.000000,0.014278,0.000000,120.000000,120.000000,0.000000,2.000000,0.000000,0.000000,0.000000,0.000000,0.000000,0.122383,0.111100,0.000000,0.014278,0.000000,120.000000,120.000000,0.000000,2.000000,0.000000,0.000000,0.000000,0.000000,0.000000;
#CREDIT:Basic;
#NOTES:
// measure 0
0001
0000
0000
0001
,  // measure 1
0000
0010
0000
0010
,  // measure 2
0000
0001
0000
0100
,  // measure 3
0000
0100
0000
0002
,  // measure 4
0000
0000
0003
0000
,  // measure 5
1000
0000
0010
0000
,  // measure 6
1000
0000
0100
0000
,  // measure 7
0010
0000
0001
0000
,  // measure 8
0100
0000
0001
0000
,  // measure 9
0100
0000
0010
0000
,  // measure 10
0001
0000
0100
0000
,  // measure 11
0010
0000
0001
0000
,  // measure 12
0001
0000
1000
0000
,  // measure 13
1000
0000
0001
0000
,  // measure 14
0001
0000
0100
0000
,  // measure 15
1000
0000
0010
0000
,  // measure 16
0001
0000
0010
0000
,  // measure 17
1000
0000
0001
0000
,  // measure 18
1000
0000
0010
0000
,  // measure 19
0001
0000
0100
0000
,  // measure 20
1000
0000
0010
0000
,  // measure 21
0001
0000
0100
0000
,  // measure 22
1000
0000
0010
0000
,  // measure 23
0100
0000
1000
0000
,  // measure 24
0010
0000
0000
0010
,  // measure 25
0000
0100
0000
1000
,  // measure 26
0000
0010
0000
0001
,  // measure 27
0000
0001
0000
0100
,  // measure 28
0000
0010
0000
1000
,  // measure 29
0000
0100
0000
1000
,  // measure 30
0000
0001
0000
1000
,  // measure 31
0000
0010
0000
0100
,  // measure 32
0000
0001
0000
1000
,  // measure 33
0000
0100
0000
1000
,  // measure 34
0000
0100
0000
1000
,  // measure 35
0000
0010
0000
0001
,  // measure 36
0000
0010
0000
0010
,  // measure 37
0000
0100
0000
1000
,  // measure 38
0000
0001
0000
1000
,  // measure 39
0000
0100
0000
1000
,  // measure 40
0000
0010
0000
1000
,  // measure 41
0000
1000
0000
0010
,  // measure 42
0000
0010
0000
0001
,  // measure 43
0000
1000
0000
0010
,  // measure 44
0000
1000
0000
0100
,  // measure 45
0000
1000
0000
0100
,  // measure 46
0000
0001
0000
0100
,  // measure 47
0000
1000
0000
0010
,  // measure 48
0000
0001
0000
0100
,  // measure 49
0000
0100
0000
1000
,  // measure 50
0000
0001
0000
0010
,  // measure 51
0000
1000
0000
0100
,  // measure 52
0000
0010
0000
0001
,  // measure 53
0000
0010
0000
0100
,  // measure 54
0000
1000
0000
0010
,  // measure 55
0000
0001
0000
0010
,  // measure 56
0000
1000
0000
0100
,  // measure 57
0000
0010
0000
0001
,  // measure 58
0000
1000
0000
0010
,  // measure 59
0000
0100
0000
1000
,  // measure 60
0000
0010
0000
2000
,  // measure 61
0000
0000
0000
0000
,  // measure 62
0000
3000
0000
0000
;

//---------------dance-single - Basic----------------
#NOTEDATA:;
#CHARTNAME:;
#STEPSTYPE:dance-single;
#DESCRIPTION:Basic;
#CHARTSTYLE:;
#DIFFICULTY:Medium;
#METER:3;
#RADARVALUES:0.208050,0.199981,0.000000,0.021417,0.000000,204.000000,204.000000,0.000000,3.000000,0.000000,0.000000,0.000000,0.000000,0.000000,0.208050,0.199981,0.000000,0.021417,0.000000,204.000000,204.000000,0.000000,3.000000,0.000000,0.000000,0.000000,0.000000,0.000000;
#CREDIT:;
#NOTES:
// measure 0
0001
0000
0000
0001
,  // measure 1
1000
0010
1000
0010
,  // measure 2
1000
0001
0010
0100
,  // measure 3
0100
0100
0100
0002
,  // measure 4
0000
0000
0003
1000
,  // measure 5
1000
0010
0010
1000
,  // measure 6
1000
0100
0100
0010
,  // measure 7
0010
0001
0001
0100
,  // measure 8
0100
0001
0001
0100
,  // measure 9
0100
0001
0010
1000
,  // measure 10
0001
1000
0100
0010
,  // measure 11
0010
0001
0001
0002
,  // measure 12
0000
0000
0003
1000
,  // measure 13
1000
0010
0001
0100
,  // measure 14
0001
1000
0100
0010
,  // measure 15
1000
1000
0010
0010
,  // measure 16
0001
0001
0010
0100
,  // measure 17
1000
0000
0001
0000
,  // measure 18
1000
0000
0010
0000
,  // measure 19
0001
0000
0100
0000
,  // measure 20
1000
0000
0010
0000
,  // measure 21
0001
0000
0100
0000
,  // measure 22
1000
0000
0010
0000
,  // measure 23
0100
0000
1000
0000
,  // measure 24
0010
0000
0000
0010
,  // measure 25
0010
0100
0010
1000
,  // measure 26
0001
0010
0010
0001
,  // measure 27
1000
0001
0001
0100
,  // measure 28
0001
0010
1000
1000
,  // measure 29
1000
0100
0010
1000
,  // measure 30
1000
0001
0100
1000
,  // measure 31
1000
0010
0001
0100
,  // measure 32
1000
0001
0010
1000
,  // measure 33
1000
0100
0010
1000
,  // measure 34
1000
0100
0010
1000
,  // measure 35
0001
0010
0100
0001
,  // measure 36
0001
0010
0100
0010
,  // measure 37
1000
0100
0010
1000
,  // measure 38
1000
0001
0010
1000
,  // measure 39
1000
0100
0010
1000
,  // measure 40
0001
0010
0100
1000
,  // measure 41
0000
1000
0000
0010
,  // measure 42
0000
0010
0000
0001
,  // measure 43
0000
1000
0000
0010
,  // measure 44
0000
1000
0000
0100
,  // measure 45
0000
1000
0000
0100
,  // measure 46
0000
0001
0000
0100
,  // measure 47
0000
1000
0000
0010
,  // measure 48
0000
0001
0000
0100
,  // measure 49
0100
0100
0100
1000
,  // measure 50
1000
0001
0001
0010
,  // measure 51
0010
1000
1000
0100
,  // measure 52
0100
0010
0010
0001
,  // measure 53
0001
0010
0010
0100
,  // measure 54
0100
1000
1000
0010
,  // measure 55
0010
0001
0001
0010
,  // measure 56
0010
1000
1000
0100
,  // measure 57
0100
0010
0010
0001
,  // measure 58
0001
1000
1000
0010
,  // measure 59
0010
0100
0100
1000
,  // measure 60
1000
0010
0010
2000
,  // measure 61
0000
0000
0000
0000
,  // measure 62
0000
3000
0000
0000
;
