#VERSION:0.83;
#TITLE:Insane ;
#SUBTITLE:;
#ARTIST:Hazbin Hotel;
#TITLETRANSLIT:;
#SUBTITLETRANSLIT:;
#ARTISTTRANSLIT:;
#GENRE:;
#ORIGIN:;
#CREDIT:Gorilla v1.1.3 (Dancing Monkeys v1.06);
#BANNER:;
#BACKGROUND:;
#PREVIEWVID:;
#JACKET:;
#CDIMAGE:;
#DISCIMAGE:;
#LYRICSPATH:;
#CDTITLE:;
#MUSIC:Insane (speed up).mp3;
#OFFSET:-1.542437;
#SAMPLESTART:36.171608;
#SAMPLELENGTH:12.000000;
#SELECTABLE:YES;
#BPMS:0.000=173.000;
#STOPS:;
#DELAYS:;
#WARPS:;
#TIMESIGNATURES:0.000=4=4;
#TICKCOUNTS:0.000=4;
#COMBOS:0.000=1;
#SPEEDS:0.000=1.000=0.000=0;
#SCROLLS:0.000=1.000;
#FAKES:;
#LABELS:0.000=Song Start;
#BGCHANGES:;
#KEYSOUNDS:;
#ATTACKS:
;

//---------------dance-single - Basic----------------
#NOTEDATA:;
#CHARTNAME:Basic;
#STEPSTYPE:dance-single;
#DESCRIPTION:Basic;
#CHARTSTYLE:;
#DIFFICULTY:Easy;
#METER:2;
#RADARVALUES:0.132591,0.248632,0.000000,0.013549,0.000000,137.000000,137.000000,0.000000,2.000000,0.000000,0.000000,0.000000,0.000000,0.000000,0.132591,0.248632,0.000000,0.013549,0.000000,137.000000,137.000000,0.000000,2.000000,0.000000,0.000000,0.000000,0.000000,0.000000;
#CREDIT:Basic;
#NOTES:
// measure 0
0000
0000
0000
0000
,  // measure 1
1000
0000
0000
0000
,  // measure 2
0010
0000
0000
0000
,  // measure 3
0100
0000
0000
0000
,  // measure 4
0001
0000
0000
0000
,  // measure 5
0010
0000
0000
0000
,  // measure 6
0010
0000
0000
1000
,  // measure 7
0000
0000
1000
0000
,  // measure 8
0000
0010
0000
0000
,  // measure 9
1000
0000
0000
0001
,  // measure 10
0000
0000
0000
0010
,  // measure 11
0000
0000
0000
1000
,  // measure 12
0000
0000
0010
0000
,  // measure 13
0000
0001
0000
0000
,  // measure 14
0010
0000
0000
0001
,  // measure 15
0000
0000
0000
1000
,  // measure 16
0000
0000
0000
1000
,  // measure 17
0000
0000
0001
0000
,  // measure 18
0000
1000
0000
0000
,  // measure 19
0010
0000
0000
1000
,  // measure 20
0000
0000
0010
0000
,  // measure 21
0000
1000
0000
0000
,  // measure 22
1000
0000
0000
0001
,  // measure 23
0000
0000
0010
0000
,  // measure 24
0000
0100
0000
0000
,  // measure 25
1000
0000
0000
0001
,  // measure 26
0000
0000
1000
0000
,  // measure 27
0000
0010
0000
0000
,  // measure 28
0001
0000
0000
1000
,  // measure 29
0000
0000
0001
0000
,  // measure 30
0000
0010
0000
0001
,  // measure 31
0001
0001
0001
0000
,  // measure 32
1000
1000
1000
1000
,  // measure 33
0000
0010
0010
0010
,  // measure 34
0010
0000
0010
0000
,  // measure 35
1000
0000
0001
0000
,  // measure 36
1000
0000
1000
0000
,  // measure 37
0001
0000
0010
0000
,  // measure 38
1000
0000
0001
0000
,  // measure 39
1000
0000
0010
0000
,  // measure 40
1000
0000
0010
0000
,  // measure 41
1000
0000
0001
0000
,  // measure 42
1000
0000
0001
0000
,  // measure 43
0000
0000
0000
1000
,  // measure 44
0000
0000
0000
0001
,  // measure 45
0000
0000
0000
0010
,  // measure 46
0000
0000
0000
0002
,  // measure 47
0000
0000
0000
0000
,  // measure 48
0000
0000
0003
0000
,  // measure 49
0000
0000
0000
1000
,  // measure 50
0000
0000
0000
0001
,  // measure 51
0000
0000
0000
1000
,  // measure 52
0000
0000
0000
0001
,  // measure 53
0000
0000
2000
0000
,  // measure 54
0000
0000
0000
0000
,  // measure 55
3000
0000
0000
1000
,  // measure 56
0000
0000
0000
0010
,  // measure 57
0000
0000
0000
0001
,  // measure 58
0000
0000
0000
0001
,  // measure 59
0000
0000
1000
0000
,  // measure 60
0001
0000
0000
0010
,  // measure 61
0000
0010
0000
1000
,  // measure 62
0000
0100
0000
1000
,  // measure 63
0000
0100
0000
1000
,  // measure 64
0000
0001
0000
0010
,  // measure 65
0000
0100
0000
1000
,  // measure 66
0000
0100
0000
1000
,  // measure 67
0000
0010
0000
0100
,  // measure 68
0000
0100
0000
1000
,  // measure 69
0000
0100
0000
1000
,  // measure 70
0000
0001
0000
0010
,  // measure 71
0000
0100
0000
1000
,  // measure 72
0000
1000
0000
0010
,  // measure 73
0000
0010
0000
0100
,  // measure 74
0000
0100
0000
1000
,  // measure 75
0000
0100
0000
1000
,  // measure 76
0000
0001
0000
0010
,  // measure 77
0000
0100
0000
1000
,  // measure 78
0000
1000
0000
0010
,  // measure 79
0000
0010
0000
0100
,  // measure 80
0000
0100
0000
1000
,  // measure 81
0000
0100
0000
1000
,  // measure 82
0000
0001
0000
0010
,  // measure 83
0000
0100
0000
1000
,  // measure 84
0000
1000
0000
0010
,  // measure 85
0000
0000
0000
1000
,  // measure 86
0000
0000
0010
0000
,  // measure 87
0000
0000
0000
0001
,  // measure 88
0000
0000
0000
1000
,  // measure 89
0000
0000
0000
0001
,  // measure 90
0000
0000
0000
0010
,  // measure 91
0000
0000
0000
1000
;
