#VERSION:0.83;
#TITLE:IN MY MOUTH(sped up);
#SUBTITLE:;
#ARTIST:Black Dresses;
#TITLETRANSLIT:;
#SUBTITLETRANSLIT:;
#ARTISTTRANSLIT:;
#GENRE:;
#ORIGIN:;
#CREDIT:Gorilla v1.1.3 (Dancing Monkeys v1.06);
#BANNER:;
#BACKGROUND:;
#PREVIEWVID:;
#JACKET:;
#CDIMAGE:;
#DISCIMAGE:;
#LYRICSPATH:;
#CDTITLE:;
#MUSIC:IN MY MOUTH(sped up).mp3;
#OFFSET:-0.094490;
#SAMPLESTART:40.244148;
#SAMPLELENGTH:12.000000;
#SELECTABLE:YES;
#BPMS:0.000=149.441;
#STOPS:;
#DELAYS:;
#WARPS:;
#TIMESIGNATURES:0.000=4=4;
#TICKCOUNTS:0.000=4;
#COMBOS:0.000=1;
#SPEEDS:0.000=1.000=0.000=0;
#SCROLLS:0.000=1.000;
#FAKES:;
#LABELS:0.000=Song Start;
#BGCHANGES:;
#KEYSOUNDS:;
#ATTACKS:
;

//---------------dance-single - Basic----------------
#NOTEDATA:;
#CHARTNAME:Basic;
#STEPSTYPE:dance-single;
#DESCRIPTION:Basic;
#CHARTSTYLE:;
#DIFFICULTY:Easy;
#METER:3;
#RADARVALUES:0.107590,0.151531,0.000000,0.014483,0.000000,104.000000,104.000000,0.000000,2.000000,0.000000,0.000000,0.000000,0.000000,0.000000,0.107590,0.151531,0.000000,0.014483,0.000000,104.000000,104.000000,0.000000,2.000000,0.000000,0.000000,0.000000,0.000000,0.000000;
#CREDIT:Basic;
#NOTES:
// measure 0
1000
0000
0100
0000
,  // measure 1
0000
0000
0001
0000
,  // measure 2
0010
0000
1000
0000
,  // measure 3
0001
0000
0001
0000
,  // measure 4
1000
0000
0100
0000
,  // measure 5
2000
0000
0000
0000
,  // measure 6
3000
0000
0100
0000
,  // measure 7
0001
0000
0100
0000
,  // measure 8
0001
0000
0100
0000
,  // measure 9
0001
0000
0001
0000
,  // measure 10
0001
0000
1000
0000
,  // measure 11
1000
0000
0100
0000
,  // measure 12
0001
0000
0001
0000
,  // measure 13
0001
0000
1000
0000
,  // measure 14
1000
0000
0010
0000
,  // measure 15
0010
0000
0001
0000
,  // measure 16
0001
0000
0010
0000
,  // measure 17
0001
0000
0010
0000
,  // measure 18
0001
0000
0010
0000
,  // measure 19
0001
0000
0010
0000
,  // measure 20
1000
0000
0000
0010
,  // measure 21
0000
0001
0000
1000
,  // measure 22
0000
0010
0000
1000
,  // measure 23
0000
0010
0000
0001
,  // measure 24
0000
0001
0000
0001
,  // measure 25
0000
0100
0000
1000
,  // measure 26
0000
0010
0000
0001
,  // measure 27
0000
0010
0000
1000
,  // measure 28
0000
0010
0000
0001
,  // measure 29
0000
1000
0000
0001
,  // measure 30
0000
0010
0000
0001
,  // measure 31
0000
0001
0000
1000
,  // measure 32
0000
0010
0000
1000
,  // measure 33
0000
0010
0000
0001
,  // measure 34
0000
0001
0000
1000
,  // measure 35
0000
0001
0000
1000
,  // measure 36
0000
0010
0000
0001
,  // measure 37
0001
0100
0100
1000
,  // measure 38
1000
0010
0010
0001
,  // measure 39
0001
0010
0010
1000
,  // measure 40
1000
0010
0010
1000
,  // measure 41
1000
0010
0010
0001
,  // measure 42
0001
0010
0010
1000
,  // measure 43
1000
0010
0010
0001
,  // measure 44
0001
0100
0100
0100
,  // measure 45
0000
0000
2000
0000
,  // measure 46
0000
0000
3000
0000
;
