#VERSION:0.83;
#TITLE:IN MY HEAD!;
#SUBTITLE:;
#ARTIST:Dancing Monkeys Project;
#TITLETRANSLIT:;
#SUBTITLETRANSLIT:;
#ARTISTTRANSLIT:;
#GENRE:;
#ORIGIN:;
#CREDIT:Gorilla v1.1.3 (Dancing Monkeys v1.06);
#BANNER:;
#BACKGROUND:;
#PREVIEWVID:;
#JACKET:;
#CDIMAGE:;
#DISCIMAGE:;
#LYRICSPATH:;
#CDTITLE:;
#MUSIC:IN MY HEAD!.mp3;
#OFFSET:-0.953021;
#SAMPLESTART:47.107185;
#SAMPLELENGTH:12.000000;
#SELECTABLE:YES;
#BPMS:0.000=129.999;
#STOPS:;
#DELAYS:;
#WARPS:;
#TIMESIGNATURES:0.000=4=4;
#TICKCOUNTS:0.000=4;
#COMBOS:0.000=1;
#SPEEDS:0.000=1.000=0.000=0;
#SCROLLS:0.000=1.000;
#FAKES:;
#LABELS:0.000=Song Start;
#BGCHANGES:;
#KEYSOUNDS:;
#ATTACKS:
;

//---------------dance-single - Basic----------------
#NOTEDATA:;
#CHARTNAME:Basic;
#STEPSTYPE:dance-single;
#DESCRIPTION:Basic;
#CHARTSTYLE:;
#DIFFICULTY:Easy;
#METER:2;
#RADARVALUES:0.231561,0.216877,0.000000,0.000000,0.000000,206.000000,206.000000,0.000000,0.000000,0.000000,0.000000,0.000000,0.000000,0.000000,0.231561,0.216877,0.000000,0.000000,0.000000,206.000000,206.000000,0.000000,0.000000,0.000000,0.000000,0.000000,0.000000,0.000000;
#CREDIT:Basic;
#NOTES:
0000
0000
1000
0000
,
0010
0000
0001
0000
,
0100
0000
0001
0000
,
0010
0000
1000
0000
,
0010
0000
0001
0000
,
0100
0000
1000
0000
,
0010
0000
0001
0000
,
1000
0000
0010
0010
,
1000
1000
0100
0100
,
0001
0001
0010
0010
,
0001
0001
1000
1000
,
0100
0100
1000
1000
,
0001
0010
1000
0010
,
0001
0100
0010
1000
,
1000
0100
0010
0001
,
1000
0100
0010
0001
,
0001
0100
0010
1000
,
1000
0100
0010
0001
,
0001
0100
0010
1000
,
1000
0100
0100
1000
,
0001
0001
1000
0010
,
0001
0100
0010
1000
,
0001
0010
0100
1000
,
1000
1000
0010
1000
,
0001
0000
0100
0000
,
1000
0000
0010
0010
,
0001
0001
1000
1000
,
0001
0010
1000
1000
,
0001
0001
0001
1000
,
1000
0010
0010
0000
,
0001
0000
0001
0000
,
1000
0000
0100
0100
,
0001
0001
0100
0100
,
0001
0001
1000
1000
,
1000
0001
0001
0010
,
0001
0010
0001
0001
,
0000
0010
1000
0010
,
1000
0001
0001
0000
,
0001
0100
0001
0010
,
1000
0010
0010
0010
,
1000
0000
0100
0000
,
0001
0000
0010
0000
,
1000
0000
0100
0000
,
1000
0000
0100
0000
,
0001
0000
1000
0000
,
0001
0000
0010
0000
,
0001
0000
0100
0000
,
0010
0000
1000
1000
,
0010
0010
1000
1000
,
0001
0001
0100
0100
,
1000
1000
0010
0010
,
1000
1000
0001
0001
,
0010
0010
1000
1000
,
0001
0001
1000
1000
,
0010
0010
1000
1000
,
0001
0001
1000
1000
,
0010
0010
0001
0001
,
1000
1000
0010
0010
,
1000
1000
0001
0001
,
0010
0010
1000
1000
,
0001
0001
0010
0010
,
1000
1000
0000
0000
;

//---------------dance-single - Basic----------------
#NOTEDATA:;
#CHARTNAME:;
#STEPSTYPE:dance-single;
#DESCRIPTION:Basic;
#CHARTSTYLE:;
#DIFFICULTY:Beginner;
#METER:2;
#RADARVALUES:0.137138,0.119996,0.000000,0.000000,0.000000,122.000000,122.000000,0.000000,0.000000,0.000000,0.000000,0.000000,0.000000,0.000000,0.137138,0.119996,0.000000,0.000000,0.000000,122.000000,122.000000,0.000000,0.000000,0.000000,0.000000,0.000000,0.000000,0.000000;
#CREDIT:;
#NOTES:
// measure 0
0000
0000
1000
0000
,  // measure 1
0010
0000
0001
0000
,  // measure 2
0100
0000
0001
0000
,  // measure 3
0010
0000
1000
0000
,  // measure 4
0010
0000
0001
0000
,  // measure 5
0100
0000
1000
0000
,  // measure 6
0010
0000
0001
0000
,  // measure 7
1000
0000
0010
0000
,  // measure 8
1000
0000
0100
0000
,  // measure 9
0001
0000
0010
0000
,  // measure 10
0001
0000
1000
0000
,  // measure 11
0100
0000
1000
0000
,  // measure 12
0001
0000
1000
0000
,  // measure 13
0001
0000
0010
0000
,  // measure 14
1000
0000
0010
0000
,  // measure 15
1000
0000
0010
0000
,  // measure 16
0001
0000
0010
0000
,  // measure 17
1000
0000
0010
0000
,  // measure 18
0001
0000
0010
0000
,  // measure 19
1000
0000
0100
0000
,  // measure 20
0001
0000
1000
0000
,  // measure 21
0001
0000
0010
0000
,  // measure 22
0001
0000
0100
0000
,  // measure 23
1000
0000
0010
0000
,  // measure 24
0001
0000
0100
0000
,  // measure 25
1000
0000
0010
0000
,  // measure 26
0001
0000
1000
0000
,  // measure 27
0001
0000
1000
0000
,  // measure 28
0001
0000
0001
0000
,  // measure 29
1000
0000
0010
0000
,  // measure 30
0001
0000
0001
0000
,  // measure 31
1000
0000
0100
0000
,  // measure 32
0001
0000
0100
0000
,  // measure 33
0001
0000
1000
0000
,  // measure 34
1000
0000
0001
0000
,  // measure 35
0001
0000
0001
0001
,  // measure 36
0000
0010
0000
0010
,  // measure 37
0000
0001
0000
0000
,  // measure 38
0001
0000
0001
0000
,  // measure 39
1000
0000
0010
0000
,  // measure 40
1000
0000
0100
0000
,  // measure 41
0001
0000
0010
0000
,  // measure 42
1000
0000
0100
0000
,  // measure 43
1000
0000
0100
0000
,  // measure 44
0001
0000
1000
0000
,  // measure 45
0001
0000
0010
0000
,  // measure 46
0001
0000
0100
0000
,  // measure 47
0010
0000
1000
0000
,  // measure 48
0010
0000
1000
0000
,  // measure 49
0001
0000
0100
0000
,  // measure 50
1000
0000
0010
0000
,  // measure 51
1000
0000
0001
0000
,  // measure 52
0010
0000
1000
0000
,  // measure 53
0001
0000
1000
0000
,  // measure 54
0010
0000
1000
0000
,  // measure 55
0001
0000
1000
0000
,  // measure 56
0010
0000
0001
0000
,  // measure 57
1000
0000
0010
0000
,  // measure 58
1000
0000
0001
0000
,  // measure 59
0010
0000
1000
0000
,  // measure 60
0001
0000
0010
0000
,  // measure 61
1000
0000
0000
0000
;
