#TITLE:Victorious and iCarly Theme Song Mashup;
#SUBTITLE:;
#ARTIST:Dancing Monkeys Project;
#TITLETRANSLIT:;
#SUBTITLETRANSLIT:;
#ARTISTTRANSLIT:;
#GENRE:;
#CREDIT:Gorilla v1.1.3 (Dancing Monkeys v1.06);
#BANNER:;
#BACKGROUND:;
#LYRICSPATH:;
#CDTITLE:;
#MUSIC:Victorious and iCarly Theme Song Mashup.mp3;
#OFFSET:-0.616417;
#SAMPLESTART:44.414333;
#SAMPLELENGTH:12.000000;
#SELECTABLE:YES;
#BPMS:0.000000=136.992996
;
#STOPS:
;
#BGCHANGES:;
#KEYSOUNDS:;
#ATTACKS:;

//---------------dance-single - Basic----------------
#NOTES:
     dance-single:
     Basic:
     Easy:
     3:
     0.241474,0.246695,0.000000,0.060912,0.000000,222.000000,222.000000,0.000000,8.000000,0.000000,0.000000,0.241474,0.246695,0.000000,0.060912,0.000000,222.000000,222.000000,0.000000,8.000000,0.000000,0.000000:
// measure 0
0000
2000
0000
0000
,  // measure 1
0000
0000
0000
0000
,  // measure 2
0000
0000
3000
0000
,  // measure 3
0001
0000
1000
0000
,  // measure 4
1000
0001
0100
0010
,  // measure 5
0001
0010
0000
0010
,  // measure 6
0010
0010
1000
0000
,  // measure 7
0001
0000
0010
0000
,  // measure 8
0010
1000
0010
0010
,  // measure 9
0001
1000
0000
0000
,  // measure 10
1000
1000
0001
0000
,  // measure 11
0000
0001
0000
1000
,  // measure 12
0000
0020
0000
0000
,  // measure 13
0030
0001
1000
1000
,  // measure 14
0001
0001
1000
1000
,  // measure 15
0000
0000
0001
1000
,  // measure 16
0010
0100
1000
0010
,  // measure 17
0100
0001
1000
0010
,  // measure 18
0000
0100
1000
0010
,  // measure 19
0001
0000
0000
0100
,  // measure 20
0001
0200
0000
0300
,  // measure 21
0001
2000
0000
0000
,  // measure 22
3000
0200
0000
0300
,  // measure 23
1000
0010
0000
1000
,  // measure 24
0001
0010
0000
0002
,  // measure 25
0000
0000
0000
0000
,  // measure 26
0000
0003
0000
0000
,  // measure 27
0000
0000
0000
0000
,  // measure 28
0000
0100
0001
0010
,  // measure 29
1000
0001
0100
0010
,  // measure 30
0001
0100
0001
0010
,  // measure 31
0001
0100
0001
0100
,  // measure 32
0001
0100
0010
1000
,  // measure 33
1000
0001
0010
0001
,  // measure 34
0001
0100
0010
1000
,  // measure 35
0001
1000
0001
0100
,  // measure 36
1000
0001
0100
0010
,  // measure 37
1000
0001
0010
0100
,  // measure 38
0001
1000
0100
0010
,  // measure 39
0100
0001
1000
0010
,  // measure 40
0001
1000
0010
0100
,  // measure 41
0001
0100
0010
1000
,  // measure 42
1000
0010
0100
0010
,  // measure 43
1000
0001
0100
0010
,  // measure 44
0010
1000
0100
0010
,  // measure 45
1000
0001
0100
0010
,  // measure 46
0001
1000
0100
0010
,  // measure 47
1000
0001
0100
0010
,  // measure 48
0001
0100
0001
0010
,  // measure 49
1000
0001
0010
0001
,  // measure 50
1000
0001
0010
0001
,  // measure 51
0001
0100
0001
0100
,  // measure 52
0001
0100
0010
1000
,  // measure 53
0001
0100
0001
0100
,  // measure 54
0001
1000
0001
0100
,  // measure 55
1000
0001
0100
0010
,  // measure 56
0010
1000
0100
0010
,  // measure 57
0001
0100
0001
0100
,  // measure 58
1000
1000
0100
0010
,  // measure 59
1000
0001
0100
0010
,  // measure 60
0001
1000
0010
0100
,  // measure 61
0001
1000
0100
0010
,  // measure 62
0001
1000
1000
0001
,  // measure 63
0001
0100
0100
0010
,  // measure 64
0010
1000
1000
0010
,  // measure 65
0010
0001
0100
0010
,  // measure 66
1000
0010
0010
0000
,  // measure 67
0100
1000
0010
0000
,  // measure 68
0001
0000
0020
0000
,  // measure 69
0000
0000
0030
1000
,  // measure 70
0000
1000
0000
2000
,  // measure 71
0000
0000
0000
0000
,  // measure 72
3000
0000
0000
0000
;

//---------------dance-single - Standard----------------
#NOTES:
     dance-single:
     Standard:
     Medium:
     5:
     0.342633,0.383749,0.121825,0.007614,0.000000,315.000000,299.000000,16.000000,1.000000,0.000000,0.000000,0.342633,0.383749,0.121825,0.007614,0.000000,315.000000,299.000000,16.000000,1.000000,0.000000,0.000000:
0000
0000
0000
0000
0000
0000
0000
0000
,
0000
0000
0000
0000
0000
0000
0000
0000
,
0000
0000
0000
0000
1000
0000
1010
0000
,
0000
1000
0000
0000
0000
0000
0100
0000
,
0001
0000
0010
0000
0100
0000
0010
0000
,
0001
0000
0000
0000
0100
0000
0010
0000
,
1000
0000
0000
0100
0000
0000
1000
0000
,
0001
0000
0100
0010
0000
0000
0000
0000
,
0001
0000
0100
0000
0000
0001
0000
0000
,
0001
0000
0100
0000
0000
0010
0000
0000
,
1000
0000
1000
0000
0010
0000
0100
0000
,
1000
0000
0100
0000
0000
0000
0010
0000
,
1000
0000
0010
0000
0000
0000
0100
0000
,
1000
0000
1000
0000
0010
0000
1000
0000
,
0001
0000
0001
0000
0010
0000
0001
0000
,
1000
0000
0000
0000
0100
0000
1000
0000
,
0001
0000
0000
0000
0100
0000
0010
0000
,
0001
0000
0000
0000
0100
0000
0010
0000
,
0000
1000
0000
0000
0100
0000
0010
0000
,
0001
0000
0100
0000
0010
0000
1000
0000
,
1000
0000
0000
0100
0010
0000
0100
0000
,
1010
0000
1000
0000
0001
0000
1000
0000
,
1000
0000
0100
0000
1000
0000
0010
0000
,
1000
0000
0010
0000
1000
0000
0100
0000
,
0001
0000
0100
0000
0001
0000
0010
0000
,
0001
0000
2000
0000
0000
0000
0010
0000
,
0000
0000
3000
0000
0001
0010
0100
0000
,
1100
0000
0010
0000
1000
0000
0001
0000
,
1000
0010
1000
0000
0001
0000
0100
0000
,
0001
0000
0010
0000
0001
0000
1000
0010
,
1000
0010
1000
0000
0001
0000
0100
0000
,
1000
0000
0110
0000
0001
0010
0100
0000
,
1001
0000
1000
0100
0010
0000
0001
0000
,
1010
0000
0001
0100
0010
0000
0100
0000
,
1001
0000
1000
0100
0010
0000
0001
0000
,
0001
0001
1000
0000
0100
0000
1000
0000
,
0001
0000
0010
0000
0001
0000
1000
0010
,
0001
0000
0010
0000
0001
0000
1000
0010
,
0001
0000
0100
0000
0001
0000
1000
0000
,
1100
0000
0001
0000
1000
0010
1000
0000
,
0110
0000
0001
0100
0001
0000
0100
0000
,
1001
0000
1000
0100
0010
0000
0001
0000
,
1000
0010
0100
0000
0001
0000
0100
0000
,
0001
0000
0010
0000
0001
0000
1000
0010
,
1000
0010
0100
0000
0001
0000
0100
0000
,
0001
0000
0010
0000
0001
0000
1000
0010
,
1000
0000
0010
0000
1000
0000
0001
0010
,
0001
0000
0010
0000
0001
0000
1000
0010
,
1000
0010
1000
0000
0001
0000
0100
0000
,
1010
0000
0001
0100
0010
0000
0100
0000
,
1100
0000
0001
0010
0100
0000
0010
0000
,
1000
0000
0110
0000
0001
0010
0100
0000
,
1001
0000
1000
0100
0010
0000
0001
0000
,
1000
0000
0110
0000
0001
0010
0100
0000
,
0001
0001
1000
0000
0100
0000
1000
0000
,
0001
0000
0010
0000
0001
0000
1000
0010
,
1000
0010
0100
0000
0001
0000
0100
0000
,
1000
0000
0110
0000
0001
0010
0100
0000
,
1000
0010
0100
0000
0001
0000
0100
0000
,
0001
0000
0010
0000
0001
0000
1000
0010
,
0001
0000
0100
0000
0001
0000
1000
0100
,
1000
0000
0100
0000
1000
0000
0001
0100
,
0001
0001
1000
0000
0100
0000
1000
0000
,
0001
0000
0010
0000
0001
0000
1000
0010
,
1000
0010
0100
0000
0001
0000
0100
0000
,
0001
0000
0010
0000
0001
0000
1000
0010
,
1000
0001
1000
0000
1000
0000
0000
0000
,
0001
0000
0100
0000
0000
0010
0000
0000
,
1000
0000
0100
0000
0000
0010
0000
0000
,
0001
0000
0100
0000
0010
0000
1000
0000
,
1000
0000
1000
0000
0010
0000
0100
0000
,
1000
0000
1000
0000
0010
0000
1000
0000
,
1000
0000
0000
0000
0000
0000
0000
0000
,
;

//---------------dance-single - Heavy----------------
#NOTES:
     dance-single:
     Heavy:
     Hard:
     6:
     0.398107,0.411873,0.243650,0.007614,0.000000,366.000000,334.000000,32.000000,1.000000,0.000000,0.000000,0.398107,0.411873,0.243650,0.007614,0.000000,366.000000,334.000000,32.000000,1.000000,0.000000,0.000000:
0000
0000
0000
0000
0000
0000
0000
0000
,
0000
0000
0000
0000
0000
0000
0000
0000
,
0000
0000
1000
0000
0001
0000
0101
0000
,
0000
1000
0000
0000
0000
0000
0001
0000
,
0000
0000
0001
1000
0100
0000
1000
0000
,
1000
0000
0000
0010
1000
0000
0001
0000
,
0011
0000
0000
0001
0000
0010
0001
0000
,
1000
0000
0010
0100
0000
0010
0000
0000
,
0001
0000
1000
0000
0000
0010
0000
0000
,
0001
0000
0010
0000
0000
0001
0000
0000
,
1000
0000
1000
0000
0010
1000
0100
0000
,
0001
0000
1000
0000
0001
0000
0100
0000
,
1000
0000
0001
0000
1000
0000
0100
0000
,
1000
0000
1000
0000
0100
0000
0010
0000
,
1000
0000
1000
0000
0100
0000
0010
0000
,
1000
0000
0010
0000
1010
0000
0001
0000
,
1000
0001
0000
0000
0010
0000
0001
0000
,
1000
0001
0000
0000
0010
0000
0001
0000
,
0000
1000
0000
0000
0001
0000
0100
0000
,
1000
0000
0010
0000
1000
0000
0010
0000
,
0001
0100
0000
0010
1000
0000
0001
0000
,
0110
0000
0000
1000
0100
0001
0100
0000
,
1000
0000
0100
0000
0001
0100
1000
0000
,
0001
0000
0010
0000
1000
0010
0001
0000
,
0001
0000
0010
0000
1000
0010
0001
0000
,
1000
0000
0200
0000
0000
0000
1000
0000
,
0000
0000
0300
0001
0010
0001
0010
0000
,
0110
0000
0001
1000
0001
0000
1000
0000
,
1000
0001
0010
0000
0100
0000
0010
0000
,
0110
0000
0001
0000
1000
0001
0010
1000
,
1000
0001
0010
0000
0100
0000
0010
0000
,
1000
0000
1100
0000
0010
0001
0010
0000
,
1100
0000
0001
1000
0001
1000
0010
0000
,
1100
0000
0001
0100
0010
0000
1000
0000
,
1100
0000
0001
1000
0001
1000
0010
0000
,
0001
0001
0100
0010
1000
0000
0001
0000
,
0110
0000
0001
0000
1000
0001
0010
0000
,
0110
0000
0001
0000
1000
0001
0010
0000
,
0110
0000
1000
0000
0001
1000
0010
0000
,
0110
0000
0100
0000
1000
0010
0100
0000
,
0011
0000
0001
0010
0100
0000
1000
0000
,
1100
0000
0001
1000
0001
1000
0010
0000
,
0001
0100
0001
0000
1000
0000
0100
0000
,
0110
0000
0001
0000
1000
0001
0010
1000
,
0001
0100
0001
0000
1000
0000
0100
0000
,
0110
0000
0001
0000
1000
0001
0010
0000
,
0110
0000
1000
0000
0001
1000
0100
0000
,
0110
0000
0001
0000
1000
0001
0010
1000
,
1000
0001
0010
0000
0100
0000
0010
0000
,
1100
0000
0001
0100
0010
0000
1000
0000
,
0011
0000
1000
0010
0100
0000
0001
0010
,
1000
0000
1100
0000
0010
0001
0010
0000
,
1100
0000
0001
1000
0001
1000
0010
0000
,
1000
0000
1100
0000
0010
0001
0010
0000
,
0001
0001
0100
0010
1000
0000
0001
0000
,
0110
0000
0001
0000
1000
0001
0010
1000
,
0001
0100
0001
0000
1000
0000
0100
0000
,
1000
0000
1100
0000
0010
0001
0010
0000
,
0001
0100
0001
0000
1000
0000
0100
0000
,
0110
0000
0001
0000
1000
0001
0010
0000
,
0110
0000
0001
0000
1000
0001
0100
0000
,
0110
0000
1000
0000
0001
1000
0010
0001
,
0001
0001
0100
0010
1000
0000
0001
0000
,
0110
0000
0001
0000
1000
0001
0010
1000
,
0001
0100
0001
0000
1000
0000
0100
0000
,
0110
0000
0001
0000
1000
0001
0010
1000
,
0001
0010
0100
0000
0100
0000
0000
0000
,
0001
0000
0010
0000
0000
0001
0000
0000
,
0001
0000
0010
0000
0000
0001
0000
0000
,
1000
0000
0010
0000
1000
0000
0010
0000
,
1000
0000
1000
0000
0010
1000
0100
0000
,
1000
0000
1000
0000
0100
0000
0010
0000
,
1000
0001
0000
0000
0000
0000
0000
0000
,
;
