#TITLE:sean paul - im still in love with you (sped up);
#SUBTITLE:;
#ARTIST:Dancing Monkeys Project;
#TITLETRANSLIT:;
#SUBTITLETRANSLIT:;
#ARTISTTRANSLIT:;
#GENRE:;
#CREDIT:Gorilla v1.1.3 (Dancing Monkeys v1.06);
#BANNER:;
#BACKGROUND:;
#LYRICSPATH:;
#CDTITLE:;
#MUSIC:sean paul - im still in love with you (sped up).mp3;
#OFFSET:-0.364308;
#SAMPLESTART:32.281860;
#SAMPLELENGTH:12.000000;
#SELECTABLE:YES;
#BPMS:0.000000=203.022995
;
#STOPS:
;
#BGCHANGES:;
#KEYSOUNDS:;
#ATTACKS:;

//---------------dance-single - Basic----------------
#NOTES:
     dance-single:
     Basic:
     Easy:
     4:
     0.068830,0.086813,0.004341,0.000000,0.000000,111.000000,110.000000,1.000000,0.000000,0.000000,0.000000,0.068830,0.086813,0.004341,0.000000,0.000000,111.000000,110.000000,1.000000,0.000000,0.000000,0.000000:
0000
0000
0001
0000
,
0000
1000
0000
0000
,
0000
0001
0000
1000
,
0000
0000
0001
0000
,
0000
1000
0000
0000
,
0000
0000
0000
1000
,
0000
1000
1000
0000
,
0000
0001
0001
0000
,
0000
0001
0000
1000
,
0000
0001
1000
0000
,
0000
1000
0100
0100
,
0000
1000
0001
0000
,
0000
0010
0010
0010
,
0000
0100
0100
0100
,
0000
1000
0000
0010
,
0010
0010
0000
0000
,
1000
1000
1000
0100
,
0100
0100
0000
0000
,
0000
0001
0001
1000
,
0001
1000
0010
0000
,
0000
1000
0001
0000
,
0000
1000
0010
0000
,
0000
0001
0100
0000
,
1000
0010
0000
0100
,
0000
1000
0010
1000
,
0001
0100
0000
0000
,
0000
0010
1000
0100
,
0000
1000
0100
0000
,
0000
1000
0001
0000
,
1000
0100
0000
0000
,
0000
1000
0010
0000
,
1000
0100
0000
0000
,
0000
1000
0010
0000
,
1000
0001
0000
0000
,
0000
1000
0001
1000
,
0001
0100
0000
0000
,
0000
1000
0001
0000
,
0000
1000
0010
0000
,
0000
0001
0100
0000
,
0001
0100
0000
0000
,
0000
0001
1000
0000
,
1000
0001
0000
0000
,
0000
1000
0001
0000
,
1000
0000
0010
0000
,
1000
0001
1000
0000
,
1001
1000
0001
0000
,
0000
1000
1000
0000
,
0001
1000
0000
0000
,
0000
0001
0010
0100
,
0001
1000
0000
0000
,
0001
0000
0000
0000
;
