#TITLE:I'm Sprung;
#SUBTITLE:;
#ARTIST:Dancing Monkeys Project;
#TITLETRANSLIT:;
#SUBTITLETRANSLIT:;
#ARTISTTRANSLIT:;
#GENRE:;
#CREDIT:Gorilla v1.1.3 (Dancing Monkeys v1.06);
#BANNER:;
#BACKGROUND:;
#LYRICSPATH:;
#CDTITLE:;
#MUSIC:I'm Sprung.mp3;
#OFFSET:-0.682417;
#SAMPLESTART:33.082417;
#SAMPLELENGTH:12.000000;
#SELECTABLE:YES;
#BPMS:0.000000=130.000000
;
#STOPS:
;
#BGCHANGES:;
#KEYSOUNDS:;
#ATTACKS:;

//---------------dance-single - Basic----------------
#NOTES:
     dance-single:
     Basic:
     Easy:
     1:
     0.079197,0.110778,0.000000,0.031232,0.000000,71.000000,71.000000,0.000000,4.000000,0.000000,0.000000,0.079197,0.110778,0.000000,0.031232,0.000000,71.000000,71.000000,0.000000,4.000000,0.000000,0.000000:
// measure 0
0002
0000
0000
0003
,  // measure 1
0000
2000
0000
0000
,  // measure 2
3000
0000
0010
0000
,  // measure 3
0000
0001
0000
0100
,  // measure 4
0000
0000
1000
0000
,  // measure 5
0000
0010
0000
0000
,  // measure 6
0000
0000
0001
0000
,  // measure 7
0000
0000
0100
0000
,  // measure 8
0000
0000
0000
0001
,  // measure 9
0000
0000
0000
0000
,  // measure 10
0010
0000
0000
0000
,  // measure 11
0000
0010
0000
0000
,  // measure 12
0000
0000
1000
0000
,  // measure 13
0000
0000
0000
0000
,  // measure 14
1000
0000
0000
0000
,  // measure 15
0000
0001
0000
0000
,  // measure 16
0001
0000
0000
0100
,  // measure 17
0000
0000
1000
0000
,  // measure 18
0000
0010
0000
0000
,  // measure 19
0100
0000
0000
1000
,  // measure 20
0000
0000
0010
0000
,  // measure 21
0010
0000
0000
1000
,  // measure 22
0000
0000
0010
0000
,  // measure 23
0001
0000
0100
0000
,  // measure 24
0000
1000
0000
0000
,  // measure 25
0010
0000
0000
1000
,  // measure 26
0000
0010
0000
0000
,  // measure 27
0100
0000
1000
0000
,  // measure 28
0010
0000
0100
0000
,  // measure 29
0010
0000
0100
0000
,  // measure 30
0000
1000
0000
0010
,  // measure 31
0000
0000
0001
0000
,  // measure 32
0000
1000
0000
0010
,  // measure 33
0000
0000
0010
0000
,  // measure 34
2000
0000
0000
0000
,  // measure 35
0000
3000
0000
0000
,  // measure 36
0000
0010
0000
0000
,  // measure 37
0000
0001
0000
0000
,  // measure 38
1000
0000
0010
0000
,  // measure 39
0000
0100
0000
0000
,  // measure 40
1000
0000
0100
0000
,  // measure 41
0000
0010
0000
0000
,  // measure 42
0100
0000
1000
0000
,  // measure 43
0000
0001
0000
0100
,  // measure 44
0000
0000
1000
0000
,  // measure 45
0000
0010
0000
0100
,  // measure 46
0000
0000
1000
0000
,  // measure 47
0000
0000
0000
0000
,  // measure 48
0010
0000
0000
0000
,  // measure 49
0100
0000
0000
0001
,  // measure 50
0000
1000
0000
0000
,  // measure 51
0010
0000
0000
1000
,  // measure 52
0020
0000
0000
0000
,  // measure 53
0000
0000
0000
0000
,  // measure 54
0000
0000
0030
0000
,  // measure 55
0001
0000
0010
0000
,  // measure 56
0000
0001
0000
0100
;
