#VERSION:0.83;
#TITLE:LAKIM - A Pimp Named Slickback;
#SUBTITLE:;
#ARTIST:Dancing Monkeys Project;
#TITLETRANSLIT:;
#SUBTITLETRANSLIT:;
#ARTISTTRANSLIT:;
#GENRE:;
#ORIGIN:;
#CREDIT:Gorilla v1.1.3 (Dancing Monkeys v1.06);
#BANNER:boondocks-slickback-ckh8ljj85ezcadnp.png;
#BACKGROUND:a_pimp_named_slickback_by_darkgx_d14cacc-fullview.png;
#PREVIEWVID:;
#JACKET:;
#CDIMAGE:;
#DISCIMAGE:;
#LYRICSPATH:;
#CDTITLE:;
#MUSIC:LAKIM - A Pimp Named Slickback.mp3;
#OFFSET:-1.757007;
#SAMPLESTART:44.614151;
#SAMPLELENGTH:12.000000;
#SELECTABLE:YES;
#BPMS:0.000=140.000;
#STOPS:;
#DELAYS:;
#WARPS:;
#TIMESIGNATURES:0.000=4=4;
#TICKCOUNTS:0.000=4;
#COMBOS:0.000=1;
#SPEEDS:0.000=1.000=0.000=0;
#SCROLLS:0.000=1.000;
#FAKES:;
#LABELS:0.000=Song Start;
#BGCHANGES:;
#KEYSOUNDS:;
#ATTACKS:
;

//---------------dance-single - Basic----------------
#NOTEDATA:;
#CHARTNAME:Basic;
#STEPSTYPE:dance-single;
#DESCRIPTION:Basic;
#CHARTSTYLE:;
#DIFFICULTY:Easy;
#METER:3;
#RADARVALUES:0.086523,0.074960,0.000000,0.000000,0.000000,152.000000,152.000000,0.000000,0.000000,0.000000,0.000000,0.000000,0.000000,0.000000,0.086523,0.074960,0.000000,0.000000,0.000000,152.000000,152.000000,0.000000,0.000000,0.000000,0.000000,0.000000,0.000000,0.000000;
#CREDIT:Basic;
#NOTES:
// measure 0
1000
0000
0100
0000
,  // measure 1
0001
0000
0010
0000
,  // measure 2
0100
0000
1000
0000
,  // measure 3
0010
0000
0100
0000
,  // measure 4
1000
0000
0010
0000
,  // measure 5
0001
0000
0100
0000
,  // measure 6
0001
0000
1000
0000
,  // measure 7
0010
0000
0100
0000
,  // measure 8
0010
0000
0001
0000
,  // measure 9
1000
0000
0100
0000
,  // measure 10
0010
0000
0100
0000
,  // measure 11
0010
0000
0001
0000
,  // measure 12
1000
0000
0001
0000
,  // measure 13
0010
0000
0100
0000
,  // measure 14
0010
0000
0100
0000
,  // measure 15
1000
0000
0001
0000
,  // measure 16
1000
0000
0001
0000
,  // measure 17
1000
0000
0001
0000
,  // measure 18
1000
0000
0001
0000
,  // measure 19
1000
0000
0001
0000
,  // measure 20
1000
0000
0001
0000
,  // measure 21
1000
0000
0001
0000
,  // measure 22
1000
0000
0001
0000
,  // measure 23
1000
0000
0100
0000
,  // measure 24
0010
0000
1000
0000
,  // measure 25
0010
0000
0001
0000
,  // measure 26
0100
0000
1000
0000
,  // measure 27
0010
0000
1000
0000
,  // measure 28
0010
0000
1000
0000
,  // measure 29
0010
0000
0100
0000
,  // measure 30
1000
0000
0010
0000
,  // measure 31
0001
0000
0100
0000
,  // measure 32
1000
0000
0010
0000
,  // measure 33
0100
0000
0001
0000
,  // measure 34
0010
0000
0100
0000
,  // measure 35
0010
0000
1000
0000
,  // measure 36
0001
0000
1000
0000
,  // measure 37
0001
0000
1000
0000
,  // measure 38
0001
0000
1000
0000
,  // measure 39
0001
0000
1000
0000
,  // measure 40
0001
0000
1000
0000
,  // measure 41
0100
0000
0001
0000
,  // measure 42
0100
0000
0010
0000
,  // measure 43
1000
0000
0010
0000
,  // measure 44
0001
0000
0010
0000
,  // measure 45
1000
0000
0010
0000
,  // measure 46
0100
0000
1000
0000
,  // measure 47
0010
0000
0001
0000
,  // measure 48
1000
0000
0010
0000
,  // measure 49
1000
0000
0001
0000
,  // measure 50
0100
0000
0001
0000
,  // measure 51
0100
0000
1000
0000
,  // measure 52
0001
0100
0000
0001
,  // measure 53
0000
0100
0000
0001
,  // measure 54
0000
1000
0000
0001
,  // measure 55
0000
0010
0000
1000
,  // measure 56
0000
0001
0000
0100
,  // measure 57
0000
0001
0000
1000
,  // measure 58
0000
0100
0000
0010
,  // measure 59
0000
1000
0000
0010
,  // measure 60
0000
0001
0000
0010
,  // measure 61
0000
1000
0000
0100
,  // measure 62
0000
0001
0000
0100
,  // measure 63
0000
0010
0000
1000
,  // measure 64
0000
0001
0000
0100
,  // measure 65
0000
0010
0000
0001
,  // measure 66
0000
0100
0000
0010
,  // measure 67
0000
1000
0000
0100
,  // measure 68
0000
0001
0000
1000
,  // measure 69
0000
0001
0000
1000
,  // measure 70
0000
0001
0000
1000
,  // measure 71
0000
0010
0000
0001
,  // measure 72
0000
1000
0000
0010
,  // measure 73
0000
0100
0000
1000
,  // measure 74
0000
0010
0000
0100
,  // measure 75
0000
0001
0000
0000
;
