#TITLE:I'll Do It;
#SUBTITLE:;
#ARTIST:Dancing Monkeys Project;
#TITLETRANSLIT:;
#SUBTITLETRANSLIT:;
#ARTISTTRANSLIT:;
#GENRE:;
#CREDIT:Gorilla v1.1.3 (Dancing Monkeys v1.06);
#BANNER:maxresdefault.png;
#BACKGROUND:kmaxresdefault.png;
#LYRICSPATH:;
#CDTITLE:;
#MUSIC:Ayesha erotica Heidi montag I ll do it sped up pitched .mp3;
#OFFSET:-1.469708;
#SAMPLESTART:51.326874;
#SAMPLELENGTH:12.000000;
#SELECTABLE:YES;
#BPMS:0.000000=134.000000
;
#STOPS:
;
#BGCHANGES:;
#KEYSOUNDS:;
#ATTACKS:;

//---------------dance-single - Basic----------------
#NOTES:
     dance-single:
     Basic:
     Easy:
     3:
     0.209372,0.175185,0.000000,0.000000,0.000000,256.000000,256.000000,0.000000,0.000000,0.000000,0.000000,0.209372,0.175185,0.000000,0.000000,0.000000,256.000000,256.000000,0.000000,0.000000,0.000000,0.000000:
0000
0001
0000
0010
,
0000
1000
0000
0010
,
0000
1000
0000
1000
,
0000
1000
0000
0100
,
0000
0010
0000
0001
,
0000
1000
0010
1000
,
0001
1000
0100
0010
,
0100
1000
0001
0100
,
1000
0010
1000
0001
,
0001
1000
0010
1000
,
0001
1000
0100
0010
,
0010
1000
0001
0100
,
0100
0001
1000
0100
,
0100
1000
0001
0100
,
0000
0001
1000
0010
,
0010
0001
1000
0010
,
0010
1000
0001
0010
,
0010
1000
0001
0010
,
0010
1000
0001
0100
,
0100
1000
0001
0100
,
1000
0010
1000
0001
,
0001
1000
0010
1000
,
0001
1000
0100
0010
,
0010
1000
0001
0100
,
1000
0010
1000
0001
,
0001
1000
0010
1000
,
0001
1000
0100
0010
,
1000
0001
0001
0010
,
1000
0100
0010
0001
,
0001
1000
0010
1000
,
0001
1000
0100
0010
,
0100
1000
0001
0100
,
1000
0010
1000
0001
,
0001
1000
0010
1000
,
0001
1000
0100
0010
,
0010
1000
0001
0100
,
0100
0001
1000
0100
,
0100
0001
1000
0010
,
0010
1000
0001
0010
,
1000
0010
0100
0100
,
0100
0001
0001
0001
,
1000
1000
1000
0010
,
0010
1000
0001
0100
,
0100
0001
1000
0100
,
1000
1000
0001
0100
,
1000
1000
0001
0010
,
0000
0001
1000
0100
,
0000
1000
0001
0010
,
1000
1000
1000
0001
,
0001
1000
0010
1000
,
0001
1000
0100
0010
,
0010
1000
0001
0100
,
1000
0001
1000
0001
,
0001
1000
0010
1000
,
0001
1000
0100
0010
,
0100
0001
0010
0010
,
1000
0010
0100
0001
,
0001
1000
0010
1000
,
0001
1000
0100
0010
,
0010
1000
0001
0100
,
1000
0010
1000
0001
,
0001
1000
0010
1000
,
0001
1000
0100
0010
,
0000
1000
0001
0100
,
0000
1000
0001
0010
,
0000
1000
0001
0010
,
0010
0001
1000
0010
,
1000
0010
0010
1000
,
0100
0000
0000
0000
;

//---------------dance-single - Basic----------------
#NOTES:
     dance-single:
     :
     Beginner:
     3:
     0.110411,0.096252,0.000000,0.000000,0.000000,135.000000,135.000000,0.000000,0.000000,0.000000,0.000000,0.110411,0.096252,0.000000,0.000000,0.000000,135.000000,135.000000,0.000000,0.000000,0.000000,0.000000:
// measure 0
0000
0001
0000
0010
,  // measure 1
0000
1000
0000
0010
,  // measure 2
0000
1000
0000
1000
,  // measure 3
0000
1000
0000
0100
,  // measure 4
0000
0010
0000
0001
,  // measure 5
0000
1000
0000
1000
,  // measure 6
0000
1000
0000
0010
,  // measure 7
0000
1000
0000
0100
,  // measure 8
0000
0010
0000
0001
,  // measure 9
0000
1000
0000
1000
,  // measure 10
0000
1000
0000
0010
,  // measure 11
0000
1000
0000
0100
,  // measure 12
0000
0001
0000
0100
,  // measure 13
0000
1000
0000
0100
,  // measure 14
0000
0001
0000
0010
,  // measure 15
0000
0001
0000
0010
,  // measure 16
0000
1000
0000
0010
,  // measure 17
0000
1000
0000
0010
,  // measure 18
0000
1000
0000
0100
,  // measure 19
0000
1000
0000
0100
,  // measure 20
0000
0010
0000
0001
,  // measure 21
0000
1000
0000
1000
,  // measure 22
0000
1000
0000
0010
,  // measure 23
0000
1000
0000
0100
,  // measure 24
0000
0010
0000
0001
,  // measure 25
0000
1000
0000
1000
,  // measure 26
0000
1000
0000
0010
,  // measure 27
0000
0001
0000
0010
,  // measure 28
0000
0100
0000
0001
,  // measure 29
0000
0100
0000
0010
,  // measure 30
0000
1000
0000
0010
,  // measure 31
0000
1000
0000
0100
,  // measure 32
0000
0010
0000
0001
,  // measure 33
0000
1000
0000
0010
,  // measure 34
0000
1000
0000
0010
,  // measure 35
0000
1000
0000
0100
,  // measure 36
0000
0001
0000
0100
,  // measure 37
0000
0001
0000
0010
,  // measure 38
0000
1000
0000
0010
,  // measure 39
0000
0010
0000
0100
,  // measure 40
0000
0001
0000
0010
,  // measure 41
0000
1000
0000
0010
,  // measure 42
0000
1000
0000
0100
,  // measure 43
0000
0001
0000
0100
,  // measure 44
0000
1000
0000
0100
,  // measure 45
0000
1000
0000
0010
,  // measure 46
0000
0001
0000
0100
,  // measure 47
0000
1000
0000
0010
,  // measure 48
0000
1000
0000
0001
,  // measure 49
0000
1000
0000
0100
,  // measure 50
0000
1000
0000
0010
,  // measure 51
0000
1000
0000
0100
,  // measure 52
0000
0001
0000
0001
,  // measure 53
0000
1000
0000
1000
,  // measure 54
0000
1000
0000
0010
,  // measure 55
0000
0001
0000
0010
,  // measure 56
0000
0010
0000
0001
,  // measure 57
0000
0100
0000
0010
,  // measure 58
0000
1000
0000
0010
,  // measure 59
0000
1000
0000
0100
,  // measure 60
0000
0010
0000
0001
,  // measure 61
0000
1000
0000
0010
,  // measure 62
0000
1000
0000
0010
,  // measure 63
0000
1000
0000
0100
,  // measure 64
0000
1000
0000
0010
,  // measure 65
0000
1000
0000
0010
,  // measure 66
0000
0001
0000
0010
,  // measure 67
0000
0010
0000
0000
;
