#VERSION:0.83;
#TITLE:I Know You Know;
#SUBTITLE:;
#ARTIST:Dancing Monkeys Project;
#TITLETRANSLIT:;
#SUBTITLETRANSLIT:;
#ARTISTTRANSLIT:;
#GENRE:;
#ORIGIN:;
#CREDIT:Gorilla v1.1.3 (Dancing Monkeys v1.06);
#BANNER:;
#BACKGROUND:;
#PREVIEWVID:;
#JACKET:;
#CDIMAGE:;
#DISCIMAGE:;
#LYRICSPATH:;
#CDTITLE:;
#MUSIC:I Know You Know.mp3;
#OFFSET:-0.498188;
#SAMPLESTART:33.464855;
#SAMPLELENGTH:12.000000;
#SELECTABLE:YES;
#BPMS:0.000=182.002;
#STOPS:;
#DELAYS:;
#WARPS:;
#TIMESIGNATURES:0.000=4=4;
#TICKCOUNTS:0.000=4;
#COMBOS:0.000=1;
#SPEEDS:0.000=1.600=0.000=0;
#SCROLLS:0.000=1.000;
#FAKES:;
#LABELS:0.000=Song Start;
#BGCHANGES:;
#KEYSOUNDS:;
#ATTACKS:
;

//---------------dance-single - Basic----------------
#NOTEDATA:;
#CHARTNAME:Basic;
#STEPSTYPE:dance-single;
#DESCRIPTION:Basic;
#CHARTSTYLE:;
#DIFFICULTY:Easy;
#METER:3;
#RADARVALUES:0.234181,0.291426,0.000000,0.056919,0.000000,288.000000,288.000000,0.000000,10.000000,0.000000,0.000000,0.000000,0.000000,0.000000,0.234181,0.291426,0.000000,0.056919,0.000000,288.000000,288.000000,0.000000,10.000000,0.000000,0.000000,0.000000,0.000000,0.000000;
#CREDIT:Basic;
#NOTES:
// measure 0
1000
1000
0000
0001
,  // measure 1
0001
0000
1000
1000
,  // measure 2
0000
0001
0001
0000
,  // measure 3
1000
1000
0000
0010
,  // measure 4
0000
0100
0001
0000
,  // measure 5
1000
0000
0100
1000
,  // measure 6
1000
0001
0000
0000
,  // measure 7
0001
0000
0010
0100
,  // measure 8
0000
0100
0001
0000
,  // measure 9
0001
0000
0010
0100
,  // measure 10
0000
1000
0001
0000
,  // measure 11
0001
0000
0010
0100
,  // measure 12
0000
0001
0000
0000
,  // measure 13
0001
0000
0000
1000
,  // measure 14
0000
0001
0000
0000
,  // measure 15
0001
0000
0000
0010
,  // measure 16
0000
0001
0000
0000
,  // measure 17
0001
0000
0000
0010
,  // measure 18
0000
0001
0000
0000
,  // measure 19
0001
0000
0000
0010
,  // measure 20
0000
0001
0000
0000
,  // measure 21
0100
0000
0000
0010
,  // measure 22
0000
1000
0000
0000
,  // measure 23
0001
0000
0000
0010
,  // measure 24
0000
1000
0000
0000
,  // measure 25
1000
0000
0000
0010
,  // measure 26
0000
0001
0000
0000
,  // measure 27
0010
0000
1000
0010
,  // measure 28
0000
0100
0001
0000
,  // measure 29
1000
0000
0100
1000
,  // measure 30
0000
1000
0001
0000
,  // measure 31
0100
1000
0010
0001
,  // measure 32
0000
1000
0001
0000
,  // measure 33
1000
0010
1000
0100
,  // measure 34
0000
1000
0001
0000
,  // measure 35
1000
0010
1000
0100
,  // measure 36
0000
1000
0001
0000
,  // measure 37
1000
0010
1000
0100
,  // measure 38
0000
1000
0001
0000
,  // measure 39
1000
0000
0100
1000
,  // measure 40
0000
1000
0001
0000
,  // measure 41
1000
0010
1000
0100
,  // measure 42
0000
1000
0001
0000
,  // measure 43
1000
0010
1000
0100
,  // measure 44
0000
1000
0000
0010
,  // measure 45
0001
0000
0000
0010
,  // measure 46
0000
0001
0000
0000
,  // measure 47
0010
0000
1000
0000
,  // measure 48
0100
0000
0000
0010
,  // measure 49
0001
0000
0000
0010
,  // measure 50
0000
0001
0000
0000
,  // measure 51
1000
0000
0000
0010
,  // measure 52
0000
0001
0000
0000
,  // measure 53
1000
0000
0001
0000
,  // measure 54
0000
0001
0000
0000
,  // measure 55
1000
0000
0001
0000
,  // measure 56
0000
1000
0000
0010
,  // measure 57
0001
0000
0000
0010
,  // measure 58
0000
1000
0000
0010
,  // measure 59
0001
0000
1000
0010
,  // measure 60
0000
1000
0001
0000
,  // measure 61
1000
0010
1000
0100
,  // measure 62
0000
1000
0001
0000
,  // measure 63
1000
0010
1000
0100
,  // measure 64
0000
1000
0001
0000
,  // measure 65
1000
0010
1000
0100
,  // measure 66
0000
1000
0001
0000
,  // measure 67
1000
0010
1000
0100
,  // measure 68
0000
1000
0001
0000
,  // measure 69
1000
0000
0100
1000
,  // measure 70
0000
1000
0001
0000
,  // measure 71
1000
0010
1000
0100
,  // measure 72
0000
1000
0001
0000
,  // measure 73
1000
0010
1000
0100
,  // measure 74
0000
1000
0001
0000
,  // measure 75
0001
0010
0100
0010
,  // measure 76
0000
1000
0001
0000
,  // measure 77
1000
0000
0100
1000
,  // measure 78
0001
1000
0010
0000
,  // measure 79
0001
0000
1000
0001
,  // measure 80
0000
1000
0001
0000
,  // measure 81
1000
0010
1000
0100
,  // measure 82
0000
1000
0001
0000
,  // measure 83
1000
0001
1000
0000
,  // measure 84
1000
0000
0000
0000
,  // measure 85
0001
0000
0000
0000
,  // measure 86
0001
0000
0000
0000
,  // measure 87
0100
0000
0000
0000
,  // measure 88
0010
0000
0000
0002
,  // measure 89
0000
0000
0000
0003
,  // measure 90
0001
0000
0000
0100
,  // measure 91
0100
0100
0002
0000
,  // measure 92
0000
0003
2000
0000
,  // measure 93
0000
0000
0000
3002
,  // measure 94
0000
0000
0203
0000
,  // measure 95
0000
0000
0000
0302
,  // measure 96
0000
0000
0000
2003
,  // measure 97
0000
0000
0000
3020
,  // measure 98
0000
0000
0000
0000
,  // measure 99
0000
0000
0000
0000
,  // measure 100
0030
0000
0002
0000
,  // measure 101
0000
0000
0000
0003
,  // measure 102
0000
1000
0010
1000
,  // measure 103
0001
1000
0010
0000
,  // measure 104
1000
0010
1000
0100
,  // measure 105
0000
1000
0001
0000
,  // measure 106
1000
0010
1000
0100
,  // measure 107
0000
1000
0001
0000
,  // measure 108
0001
0000
1000
0001
,  // measure 109
0000
1000
0001
0000
,  // measure 110
1000
0000
0100
1000
,  // measure 111
0000
1000
0001
0000
,  // measure 112
0001
0000
1000
0001
,  // measure 113
0000
1000
0001
0000
,  // measure 114
1000
0010
1000
0100
,  // measure 115
0000
1000
0001
0000
,  // measure 116
1000
0010
1000
0100
,  // measure 117
0000
1000
0001
0000
,  // measure 118
1000
0000
0100
1000
,  // measure 119
0000
1000
0001
0000
,  // measure 120
1000
0010
1000
0100
,  // measure 121
0000
1000
0001
0000
,  // measure 122
1000
0010
1000
0100
,  // measure 123
0000
1000
0001
0000
,  // measure 124
1000
0000
0100
1000
,  // measure 125
1000
0001
0000
0000
,  // measure 126
0001
0000
1000
0000
,  // measure 127
0200
0000
0000
0000
,  // measure 128
0300
0000
0000
0000
;

//---------------dance-single - Standard----------------
#NOTEDATA:;
#CHARTNAME:Standard;
#STEPSTYPE:dance-single;
#DESCRIPTION:Standard;
#CHARTSTYLE:;
#DIFFICULTY:Medium;
#METER:5;
#RADARVALUES:0.345580,0.437139,0.159373,0.028460,0.000000,425.000000,397.000000,28.000000,5.000000,0.000000,0.000000,0.000000,0.000000,0.000000,0.345580,0.437139,0.159373,0.028460,0.000000,425.000000,397.000000,28.000000,5.000000,0.000000,0.000000,0.000000,0.000000,0.000000;
#CREDIT:Standard;
#NOTES:
0000
0000
0000
0000
0000
0000
0000
0000
,
0000
0000
0000
0000
0000
0000
0000
0000
,
0000
0000
0000
0000
0000
0000
0000
0000
,
0000
0000
0000
0000
0000
0000
1100
0000
,
0000
0000
1001
0000
0001
0000
0000
0000
,
0001
0010
0100
0000
1000
0000
0001
0000
,
0001
0100
0001
0000
0000
0000
0000
0000
,
0001
0010
0100
0000
1000
0000
0010
0000
,
0000
0000
1001
0000
0001
0000
0000
0000
,
0001
0010
0100
0000
1000
0000
0010
0000
,
0000
0000
1001
0000
0001
0000
0000
0000
,
0001
0010
0100
0000
1000
0000
0010
0000
,
0000
1000
0100
0000
0000
0000
0000
0000
,
0001
0000
0000
0000
0000
0000
0100
0000
,
0000
1000
0100
0000
0000
0000
0000
0000
,
0001
0000
0000
0000
1000
0000
0100
0000
,
0000
1000
0100
0000
0000
0000
0000
0000
,
0001
0000
0000
0000
1000
0000
0100
0000
,
0000
1000
0100
0000
0000
0000
0000
0000
,
0001
0000
0000
0000
1000
0000
0100
0000
,
0000
1000
0100
0000
0000
0000
0000
0000
,
0001
0000
0000
0000
1000
0000
0100
0000
,
0000
1000
0100
0000
0000
0000
0000
0000
,
0001
0000
0000
0000
1000
0000
0100
0000
,
0000
1000
0100
0000
0000
0000
0000
0000
,
0001
0000
0000
0000
1000
0000
0100
0000
,
0000
1000
0100
0000
0000
0000
0000
0000
,
0001
0100
0000
0000
0001
0000
0100
0010
,
0000
0000
1001
0000
0001
0000
0000
0000
,
0001
0010
0100
0000
1000
0000
0001
0000
,
1000
0000
0001
0000
0100
0000
0000
0000
,
1010
0000
0001
0000
0011
0000
0001
0100
,
1000
0000
0001
0000
0100
0000
0000
0000
,
0001
0000
0100
0000
1100
0000
1000
1000
,
1000
0000
0001
0000
0100
0000
0000
0000
,
0001
0000
0100
0000
1100
0000
1000
1000
,
1000
0000
0001
0000
0100
0000
0000
0000
,
0001
0000
0100
0000
1100
0000
1000
1000
,
1000
0000
0001
0000
0100
0000
0000
0000
,
0001
0010
0100
0000
1000
0000
0001
0000
,
1000
0000
0001
0000
0100
0000
0000
0000
,
0001
0000
0100
0000
1100
0000
1000
1000
,
1000
0000
0001
0000
0100
0000
0000
0000
,
0001
0000
0100
0000
1100
0000
1000
1000
,
0000
0001
0100
0000
0000
0000
0010
0000
,
0001
0000
0000
0000
1000
0000
0100
0000
,
0000
1000
0100
0000
0000
0000
0000
0000
,
0001
0000
0000
0000
0010
0000
0100
0000
,
0001
0000
0000
0000
0000
0000
0100
0000
,
0001
0000
0000
0000
1000
0000
0100
0000
,
0000
0001
0100
0000
0000
0000
0000
0000
,
0001
0000
0000
0000
1000
0000
0100
0000
,
0000
0001
0100
0000
0000
0000
0000
0000
,
0001
0000
0000
0000
1000
0000
0100
0000
,
0000
0001
0100
0000
0000
0000
0000
0000
,
0001
0000
0000
0000
1000
0000
0100
0000
,
0000
0001
0100
0000
0000
0000
0010
0000
,
0001
0000
0000
0000
1000
0000
0100
0000
,
0000
0001
0100
0000
0000
0000
0010
0000
,
0001
0100
0000
0000
0001
0000
0100
0010
,
1000
0000
0001
0000
0100
0000
0000
0000
,
0001
0000
0100
0000
1100
0000
1000
1000
,
1000
0000
0001
0000
0100
0000
0000
0000
,
0001
0000
0100
0000
1100
0000
1000
1000
,
1000
0000
0001
0000
0100
0000
0000
0000
,
0001
0000
0100
0000
1100
0000
1000
1000
,
1000
0000
0001
0000
0100
0000
0000
0000
,
0001
0000
0100
0000
1100
0000
1000
1000
,
1000
0000
0001
0000
0100
0000
0000
0000
,
0001
0010
0100
0000
1000
0000
0001
0000
,
1000
0000
0001
0000
0100
0000
0000
0000
,
0001
0000
0100
0000
1100
0000
1000
1000
,
1000
0000
0001
0000
0100
0000
0000
0000
,
0001
0000
0100
0000
1100
0000
1000
1000
,
1000
0000
0001
0000
0100
0000
0000
0000
,
0001
0100
0010
0000
0101
0000
0001
0000
,
1000
0000
0001
0000
0100
0000
0000
0000
,
0001
0010
0100
0000
1000
0000
0001
0000
,
0001
0000
0100
0000
0010
0000
1000
0000
,
1000
0000
0001
1000
0010
0000
1000
0000
,
1000
0000
0001
0000
0100
0000
0000
0000
,
0001
0000
0100
0000
1100
0000
1000
1000
,
1000
0000
0001
0000
0100
0000
0000
0000
,
0001
0100
0001
0000
0110
0000
0000
0000
,
1000
0000
0000
0000
0000
0000
0000
0000
,
1000
0000
0000
0000
0000
0000
0000
0000
,
0001
0000
0000
0000
0000
0000
0000
0000
,
1000
0000
0000
0000
0000
0000
0000
0000
,
0001
0000
0000
0000
0000
0000
2000
0000
,
0000
0000
0000
0000
0000
0000
3000
0000
,
1000
0000
0000
0000
0000
0000
0000
0000
,
0000
0000
0000
0000
0000
0000
1000
0100
,
1000
0000
0000
0000
0002
0000
0000
0000
,
0000
0000
0000
0000
0000
0000
0003
0000
,
0000
0000
0000
0000
2000
0000
0000
0000
,
0000
0000
0000
0000
0000
0000
3000
0100
,
1000
0000
0000
0000
0001
0000
0000
0000
,
0001
0000
0000
0000
0000
0000
0020
0000
,
0000
0000
0000
0000
0000
0000
0010
0000
,
0000
0000
0000
0000
0000
0000
0130
0000
,
0001
0000
0000
0000
2000
0000
0010
0000
,
0000
0000
0000
0000
0000
0000
3100
0000
,
1000
0000
0001
0000
1001
0000
1000
0000
,
0001
0000
0100
0000
0010
0000
1000
0000
,
0001
0000
0100
0000
1100
0000
1000
1000
,
1000
0000
0001
0000
0100
0000
0000
0000
,
0001
0000
0100
0000
1100
0000
1000
1000
,
1000
0000
0001
0000
0100
0000
0000
0000
,
1000
0000
0001
1000
0010
0000
1000
0000
,
1000
0000
0001
0000
0100
0000
0000
0000
,
0001
0010
0100
0000
1000
0000
0001
0000
,
1000
0000
0001
0000
0100
0000
0000
0000
,
1000
0000
0001
1000
0010
0000
1000
0000
,
1000
0000
0001
0000
0100
0000
0000
0000
,
0001
0000
0100
0000
1100
0000
1000
1000
,
1000
0000
0001
0000
0100
0000
0000
0000
,
0001
0000
0100
0000
1100
0000
1000
1000
,
1000
0000
0001
0000
0100
0000
0000
0000
,
0001
0010
0100
0000
1000
0000
0001
0000
,
1000
0000
0001
0000
0100
0000
0000
0000
,
0001
0000
0100
0000
1100
0000
1000
1000
,
1000
0000
0001
0000
0100
0000
0000
0000
,
0001
0000
0100
0000
1100
0000
1000
1000
,
1000
0000
0001
0000
0100
0000
0000
0000
,
0001
0010
0100
0000
1000
0000
0001
0000
,
0001
0100
0001
0000
0000
0000
0000
0000
,
0001
0000
0000
0000
0010
0000
0100
0000
,
0020
0000
0000
0000
0000
0000
0000
0000
,
0030
0000
0000
0000
0000
0000
0000
0000
,
0000
0000
0000
0000
0000
0000
0000
0000
,
0000
0000
0000
0000
0000
0000
0000
0000
,
;

//---------------dance-single - Heavy----------------
#NOTEDATA:;
#CHARTNAME:Heavy;
#STEPSTYPE:dance-single;
#DESCRIPTION:Heavy;
#CHARTSTYLE:;
#DIFFICULTY:Hard;
#METER:6;
#RADARVALUES:0.380545,0.473567,0.347206,0.028460,0.000000,468.000000,407.000000,61.000000,5.000000,0.000000,0.000000,0.000000,0.000000,0.000000,0.380545,0.473567,0.347206,0.028460,0.000000,468.000000,407.000000,61.000000,5.000000,0.000000,0.000000,0.000000,0.000000,0.000000;
#CREDIT:Heavy;
#NOTES:
0000
0000
0000
0000
0000
0000
0000
0000
,
0000
0000
0000
0000
0000
0000
0000
0000
,
0000
0000
0000
0000
0000
0000
0000
0000
,
0000
0000
0000
0000
0000
0000
0101
0000
,
1000
0000
1010
0000
1000
0000
0000
0000
,
1000
0010
1000
0000
0010
0000
1000
0000
,
1000
0100
1000
0000
0000
0000
0000
0000
,
0001
0010
0000
0100
0001
0000
0100
0000
,
1000
0000
1010
0000
1000
0000
0000
0000
,
0001
0010
0000
0100
0001
0000
0100
0000
,
1000
0000
1010
0000
1000
0000
0000
0000
,
0001
0010
0000
0100
0001
0000
0100
0000
,
0000
1000
0010
0000
0000
0000
0000
0000
,
1000
0000
0000
0000
0000
0000
0010
0000
,
0000
1000
0010
0000
0000
0000
0000
0000
,
1000
0000
0000
0000
0001
0000
1000
0000
,
0000
1000
0010
0000
0000
0000
0000
0000
,
1000
0000
0000
0000
0001
0000
1000
0000
,
0000
1000
0010
0000
0000
0000
0000
0000
,
1000
0000
0000
0000
0001
0000
1000
0000
,
0000
1000
0010
0000
0000
0000
0000
0000
,
1000
0000
0000
0000
0001
0000
1000
0000
,
0000
1000
0010
0000
0000
0000
0000
0000
,
1000
0000
0000
0000
0001
0000
1000
0000
,
0000
1000
0010
0000
0000
0000
0000
0000
,
1000
0000
0000
0000
0001
0000
1000
0000
,
0000
1000
0010
0000
0000
0000
0000
0000
,
1000
0100
0000
0000
0011
0000
1000
0010
,
1000
0000
1010
0000
1000
0000
0000
0000
,
1000
0010
1000
0000
0010
0000
1000
0000
,
1000
0000
0110
0000
1000
0000
0000
0000
,
1100
0000
0010
0000
1100
0000
0001
0010
,
1000
0000
0110
0000
1000
0000
0000
0000
,
0001
0000
0100
0000
1001
0000
1000
1000
,
1000
0000
0110
0000
1000
0000
0000
0000
,
0001
0000
0100
0000
1001
0000
1000
1000
,
1000
0000
0110
0000
1000
0000
0000
0000
,
0001
0000
0100
0000
1001
0000
1000
1000
,
1000
0000
0110
0000
1000
0000
0000
0000
,
1000
0010
1000
0000
0010
0000
1000
0000
,
1000
0000
0110
0000
1000
0000
0000
0000
,
0001
0000
0100
0000
1001
0000
1000
1000
,
1000
0000
0110
0000
1000
0000
0000
0000
,
0001
0000
0100
0000
1001
0000
1000
1000
,
0000
0001
1000
0000
0000
0000
0100
0000
,
1000
0000
0000
0000
0001
0000
1000
0000
,
0000
1000
0010
0000
0000
0000
0000
0000
,
0001
0000
0000
0000
0100
0000
0010
0000
,
0001
0000
0001
0000
0000
0000
0100
0000
,
1000
0000
0000
0000
0001
0000
1000
0000
,
0000
1000
0100
0000
0000
0000
0000
0000
,
1000
0000
0000
0000
0001
0000
1000
0000
,
0000
1000
0100
0000
0000
0000
0000
0000
,
0001
0000
0000
0100
0001
0000
1000
0000
,
0000
1000
0100
0000
0000
0000
0000
0000
,
0001
0000
0000
0100
0001
0000
1000
0000
,
0000
0001
1000
0000
0000
0000
0100
0000
,
1000
0000
0000
0000
0001
0000
1000
0000
,
0000
0001
1000
0000
0000
0000
0100
0000
,
1000
0100
0000
0000
0011
0000
1000
0010
,
1000
0000
0110
0000
1000
0000
0000
0000
,
0001
0000
0100
0000
1001
0000
1000
1000
,
1000
0000
0110
0000
1000
0000
0000
0000
,
0001
0000
0100
0000
1001
0000
1000
1000
,
1000
0000
0110
0000
1000
0000
0000
0000
,
0001
0000
0100
0000
1001
0000
1000
1000
,
1000
0000
0110
0000
1000
0000
0000
0000
,
0001
0000
0100
0000
1001
0000
1000
1000
,
1000
0000
0110
0000
1000
0000
0000
0000
,
1000
0010
1000
0000
0010
0000
1000
0000
,
1000
0000
0110
0000
1000
0000
0000
0000
,
0001
0000
0100
0000
1001
0000
1000
1000
,
1000
0000
0110
0000
1000
0000
0000
0000
,
0001
0000
0100
0000
1001
0000
1000
1000
,
1000
0000
0110
0000
1000
0000
0000
0000
,
1001
0000
0010
0000
0101
0000
0001
0000
,
1000
0000
0110
0000
1000
0000
0000
0000
,
1000
0010
1000
0000
0010
0000
1000
0000
,
1000
0000
1010
0000
1000
0000
0010
0000
,
0001
0010
0100
1000
0100
0000
1000
0000
,
1000
0000
0110
0000
1000
0000
0000
0000
,
0001
0000
0100
0000
1001
0000
1000
1000
,
1000
0000
0110
0000
1000
0000
0000
0000
,
0001
1000
0001
0000
1100
0000
0000
0000
,
0001
0000
0000
0000
0000
0000
0000
0000
,
1000
0000
0000
0000
0000
0000
0000
0000
,
0001
0000
0000
0000
0000
0000
0000
0000
,
0001
0000
0000
0000
0000
0000
0000
0000
,
0001
0000
0000
0000
0000
0000
0020
0000
,
0000
0000
0000
0000
0000
0000
0030
0000
,
1000
0000
0000
0000
0000
0000
0000
0000
,
0000
0000
0000
0000
0000
0000
1000
0001
,
0001
0000
0000
0000
0002
0000
0000
0000
,
0000
0000
0000
0000
0000
0000
0003
0000
,
0000
0000
0000
0000
2000
0000
0001
0000
,
0000
0000
0000
0000
0000
0000
3000
0001
,
0001
0000
0000
0000
1000
0000
0000
0000
,
0001
0000
0001
0000
0000
0000
2000
0000
,
0000
0000
0000
0000
0000
0000
0001
0000
,
0000
0000
0000
0000
0000
0000
3000
0000
,
0001
0000
0000
0000
0002
0000
0001
0000
,
0000
0000
0000
0000
0000
0000
1003
0000
,
0001
0000
0100
0000
0101
0000
1000
0000
,
1000
0000
1010
0000
1000
0000
0010
0000
,
0001
0000
0100
0000
1001
0000
1000
1000
,
1000
0000
0110
0000
1000
0000
0000
0000
,
0001
0000
0100
0000
1001
0000
1000
1000
,
1000
0000
0110
0000
1000
0000
0000
0000
,
0001
0010
0100
1000
0100
0000
1000
0000
,
1000
0000
0110
0000
1000
0000
0000
0000
,
1000
0010
1000
0000
0010
0000
1000
0000
,
1000
0000
0110
0000
1000
0000
0000
0000
,
0001
0010
0100
1000
0100
0000
1000
0000
,
1000
0000
0110
0000
1000
0000
0000
0000
,
0001
0000
0100
0000
1001
0000
1000
1000
,
1000
0000
0110
0000
1000
0000
0000
0000
,
0001
0000
0100
0000
1001
0000
1000
1000
,
1000
0000
0110
0000
1000
0000
0000
0000
,
1000
0010
1000
0000
0010
0000
1000
0000
,
1000
0000
0110
0000
1000
0000
0000
0000
,
0001
0000
0100
0000
1001
0000
1000
1000
,
1000
0000
0110
0000
1000
0000
0000
0000
,
0001
0000
0100
0000
1001
0000
1000
1000
,
1000
0000
0110
0000
1000
0000
0000
0000
,
1000
0010
1000
0000
0010
0000
1000
0000
,
1000
0100
1000
0000
0000
0000
0000
0000
,
0001
0000
0000
0000
0100
0000
0010
0000
,
0200
0000
0000
0000
0000
0000
0000
0000
,
0300
0000
0000
0000
0000
0000
0000
0000
,
0000
0000
0000
0000
0000
0000
0000
0000
,
0000
0000
0000
0000
0000
0000
0000
0000
,
;
