#TITLE:I Know You Know1;
#SUBTITLE:;
#ARTIST:Dancing Monkeys Project;
#TITLETRANSLIT:;
#SUBTITLETRANSLIT:;
#ARTISTTRANSLIT:;
#GENRE:;
#CREDIT:Gorilla v1.1.3 (Dancing Monkeys v1.06);
#BANNER:;
#BACKGROUND:;
#LYRICSPATH:;
#CDTITLE:;
#MUSIC:I Know You Know1.mp3;
#OFFSET:-0.485828;
#SAMPLESTART:33.458618;
#SAMPLELENGTH:12.000000;
#SELECTABLE:YES;
#BPMS:0.000000=181.968002
;
#STOPS:
;
#BGCHANGES:;
#KEYSOUNDS:;
#ATTACKS:;

//---------------dance-single - Basic----------------
#NOTES:
     dance-single:
     Basic:
     Easy:
     3:
     0.227636,0.258489,0.000000,0.000000,0.000000,178.000000,178.000000,0.000000,0.000000,0.000000,0.000000,0.227636,0.258489,0.000000,0.000000,0.000000,178.000000,178.000000,0.000000,0.000000,0.000000,0.000000:
// measure 0
1000
1000
0000
0001
,  // measure 1
0001
0000
1000
1000
,  // measure 2
0000
0010
0010
0000
,  // measure 3
0100
0100
0001
0001
,  // measure 4
0000
0001
1000
0000
,  // measure 5
1000
0000
0010
1000
,  // measure 6
0000
0001
0000
0100
,  // measure 7
1000
0000
0010
1000
,  // measure 8
0000
1000
0001
0000
,  // measure 9
1000
0000
0010
1000
,  // measure 10
0000
1000
0001
0000
,  // measure 11
1000
0000
0010
1000
,  // measure 12
0000
0001
0000
0000
,  // measure 13
0010
0000
0000
0000
,  // measure 14
0000
1000
0000
0000
,  // measure 15
1000
0000
0000
0010
,  // measure 16
0000
0001
0000
0000
,  // measure 17
1000
0000
0000
0010
,  // measure 18
0000
0001
0000
0000
,  // measure 19
1000
0000
0000
0010
,  // measure 20
0000
0001
0000
0000
,  // measure 21
1000
0000
0000
0010
,  // measure 22
0000
0001
0000
0000
,  // measure 23
1000
0000
0000
0010
,  // measure 24
0000
0001
0000
0000
,  // measure 25
1000
0000
0000
0010
,  // measure 26
0000
0001
0000
0000
,  // measure 27
1000
0000
0100
0010
,  // measure 28
0000
1000
0001
0000
,  // measure 29
1000
0000
0010
1000
,  // measure 30
0000
1000
0001
0000
,  // measure 31
0100
0000
0010
0001
,  // measure 32
0000
1000
0001
0000
,  // measure 33
1000
0000
0010
0001
,  // measure 34
0000
1000
0001
0000
,  // measure 35
1000
0000
0010
1000
,  // measure 36
0000
0100
0001
0000
,  // measure 37
1000
0000
0010
1000
,  // measure 38
0000
0100
0001
0000
,  // measure 39
1000
0000
0010
0100
,  // measure 40
0000
1000
0001
0000
,  // measure 41
1000
0000
0010
1000
,  // measure 42
0000
1000
0001
0000
,  // measure 43
1000
0000
0010
1000
,  // measure 44
0000
0001
0000
0100
,  // measure 45
1000
0000
0000
0010
,  // measure 46
0000
0001
0000
0000
,  // measure 47
1000
0000
0000
0010
,  // measure 48
0000
1000
0000
0000
,  // measure 49
0001
0000
0000
0010
,  // measure 50
0000
0001
0000
0000
,  // measure 51
1000
0000
0000
0010
,  // measure 52
0000
0001
0000
0000
,  // measure 53
1000
0000
0000
0010
,  // measure 54
0000
0001
0000
0000
,  // measure 55
0001
0000
0000
0010
,  // measure 56
0000
1000
0000
0000
,  // measure 57
1000
0000
0000
0010
,  // measure 58
0000
0001
0000
0100
,  // measure 59
0000
0000
0100
0000
,  // measure 60
0000
1000
1000
0000
,  // measure 61
1000
0000
1000
1000
,  // measure 62
0000
1000
1000
0000
,  // measure 63
0010
0000
0010
0010
,  // measure 64
0000
0001
0001
0000
,  // measure 65
1000
0000
0010
0010
,  // measure 66
0000
0001
0001
0000
,  // measure 67
1000
0000
0010
1000
,  // measure 68
0000
1000
0000
1000
,  // measure 69
1000
0000
0100
1000
,  // measure 70
0000
1000
0001
0000
,  // measure 71
1000
0000
0100
1000
,  // measure 72
0000
1000
0001
0000
,  // measure 73
1000
0000
0010
1000
,  // measure 74
0000
1000
0001
0000
,  // measure 75
1000
0000
0100
1000
,  // measure 76
0000
1000
0001
0000
,  // measure 77
1000
0000
0010
1000
,  // measure 78
0000
1000
0000
1000
,  // measure 79
1000
0000
0100
1000
,  // measure 80
0000
1000
0001
0000
,  // measure 81
1000
0000
0010
1000
,  // measure 82
0000
1000
0001
0000
;

//---------------dance-single - Standard----------------
#NOTES:
     dance-single:
     Standard:
     Medium:
     5:
     0.301810,0.406197,0.026856,0.000000,0.000000,236.000000,233.000000,3.000000,0.000000,0.000000,0.000000,0.301810,0.406197,0.026856,0.000000,0.000000,236.000000,233.000000,3.000000,0.000000,0.000000,0.000000:
0000
0000
0000
0000
0000
0000
0000
0000
,
0000
0000
0000
0000
0000
0000
0000
0000
,
0000
0000
0000
0000
0000
0000
0000
0000
,
0000
0000
0000
0000
0000
0000
1000
0000
,
0000
0000
0101
0000
0001
0000
0000
0000
,
0001
0000
1000
0000
0100
0000
0010
0000
,
0000
0000
1000
0000
0000
0000
0010
0000
,
0001
0000
1000
0000
0100
0000
0010
0000
,
0000
0001
1000
0000
0010
0000
0000
0000
,
0001
0000
1000
0000
0100
0000
0010
0000
,
0000
0001
1000
0000
0010
0000
0000
0000
,
0001
0000
1000
0000
0100
0000
0010
0000
,
0000
0001
0001
0000
0000
0000
0000
0000
,
0001
0000
0000
0000
0010
0000
0000
0000
,
0000
0001
0001
0000
0000
0000
0000
0000
,
1000
0000
0000
0000
0000
0000
0001
0000
,
0000
0001
0001
0000
0000
0000
0000
0000
,
1000
0000
0000
0000
0000
0000
0001
0000
,
0000
0001
0001
0000
0000
0000
0000
0000
,
1000
0000
0000
0000
0000
0000
0001
0000
,
0000
0001
0001
0000
0000
0000
0000
0000
,
1000
0000
0000
0000
0000
0000
0001
0000
,
0000
0001
0001
0000
0000
0000
0000
0000
,
1000
0000
0000
0000
0000
0000
0001
0000
,
0000
0001
0001
0000
0000
0000
0000
0000
,
1000
0000
0000
0000
0000
0000
0001
0000
,
0000
0001
0001
0000
0000
0000
0000
0000
,
1000
0000
0000
0000
0001
0000
0010
0100
,
0000
0001
1000
0000
0010
0000
0000
0000
,
0001
0000
1000
0000
0100
0000
0010
0000
,
0000
0001
1000
0000
0010
0000
0000
0000
,
1001
0000
0001
0000
1010
0000
0001
1000
,
0000
0001
1000
0000
0010
0000
0000
0000
,
0001
0000
0010
0000
0001
0000
0100
0000
,
0000
0001
1000
0000
0010
0000
0000
0000
,
0001
0000
0010
0000
0001
0000
0100
0000
,
0000
0001
1000
0000
0010
0000
0000
0000
,
0001
0000
0010
0000
0001
0000
0100
0000
,
0000
0001
1000
0000
0010
0000
0000
0000
,
0001
0000
1000
0000
0100
0000
0010
0000
,
0000
0001
1000
0000
0010
0000
0000
0000
,
0001
0000
0010
0000
0001
0000
0100
0000
,
0000
0001
1000
0000
0010
0000
0000
0000
,
0001
0000
0010
0000
0001
0000
0100
0000
,
0000
0000
1000
0000
0000
0000
0010
0000
,
1000
0000
0000
0000
0000
0000
0001
0000
,
0000
0001
0001
0000
0000
0000
0000
0000
,
1000
0000
0000
0000
0000
0000
0001
0000
,
0000
0000
0001
0000
0000
0000
0100
0000
,
1000
0000
0000
0000
0000
0000
0001
0000
,
0000
0001
0001
0000
0000
0000
0000
0000
,
1000
0000
0000
0000
0000
0000
0001
0000
,
0000
0001
0001
0000
0000
0000
0000
0000
,
1000
0000
0000
0000
0000
0000
0001
0000
,
0000
0001
0001
0000
0000
0000
0000
0000
,
0001
0000
0000
0000
1000
0000
0001
0000
,
0000
0000
0001
0000
0000
0000
0010
0000
,
1000
0000
0000
0000
0000
0000
0001
0000
,
0000
0000
1000
0000
0000
0000
0010
0000
,
1000
0000
0000
0000
0001
0000
0010
0100
,
0000
0001
1000
0000
0010
0000
0000
0000
,
0001
0000
0010
0000
0001
0000
0100
0000
,
0000
0001
1000
0000
0010
0000
0000
0000
,
0001
0000
0010
0000
0001
0000
0100
0000
,
0000
0001
1000
0000
0010
0000
0000
0000
,
0001
0000
0010
0000
0001
0000
0100
0000
,
0000
0001
1000
0000
0010
0000
0000
0000
,
0001
0000
0010
0000
0001
0000
0100
0000
,
0001
0000
0001
0000
0000
0000
0001
0000
,
0001
0000
1000
0000
0001
0000
0100
0000
,
0000
0001
1000
0000
0010
0000
0000
0000
,
0001
0000
1000
0000
0001
0000
0100
0000
,
0000
0001
1000
0000
0010
0000
0000
0000
,
0001
0000
0010
0000
0001
0000
0100
0000
,
0000
0001
1000
0000
0010
0000
0000
0000
,
0001
0000
1000
0000
0001
0000
0100
0000
,
0000
0001
1000
0000
0010
0000
0000
0000
,
0001
0000
0010
0000
0001
0000
0100
0000
,
0001
0000
0001
0000
0000
0000
0001
0000
,
0001
0000
1000
0000
0001
0000
0100
0000
,
0000
0001
1000
0000
0010
0000
0000
0000
,
0001
0000
0010
0000
0001
0000
0100
0000
,
0000
0001
1000
0000
0010
0000
0000
0000
,
;

//---------------dance-single - Heavy----------------
#NOTES:
     dance-single:
     Heavy:
     Hard:
     6:
     0.356801,0.406197,0.026856,0.000000,0.000000,279.000000,276.000000,3.000000,0.000000,0.000000,0.000000,0.356801,0.406197,0.026856,0.000000,0.000000,279.000000,276.000000,3.000000,0.000000,0.000000,0.000000:
0000
0000
0000
0000
0000
0000
0000
0000
,
0000
0000
0000
0000
0000
0000
0000
0000
,
0000
0000
0000
0000
0000
0000
0000
0000
,
0000
0000
0000
0000
0000
0000
1000
0001
,
1000
0000
1010
0000
1000
0000
0000
0000
,
1000
0001
0100
0000
0010
0000
1000
0000
,
0000
0001
0001
0000
0000
0000
0010
0000
,
1000
0001
0100
0000
0010
0000
1000
0000
,
0000
0001
0100
0000
0010
0000
0000
0000
,
1000
0001
0100
0000
0010
0000
1000
0000
,
0000
0001
0100
0000
0010
0000
0000
0000
,
1000
0001
0100
0000
0010
0000
1000
0000
,
0000
1000
1000
0000
0000
0000
0000
0000
,
0001
0000
0000
0000
0100
0000
0000
0000
,
0000
1000
1000
0000
0000
0000
0000
0000
,
0001
0000
0000
0000
1000
0000
0010
0000
,
0000
1000
1000
0000
0000
0000
0000
0000
,
0001
0000
0000
0000
1000
0000
0010
0000
,
0000
1000
1000
0000
0000
0000
0000
0000
,
0001
0000
0000
0000
1000
0000
0010
0000
,
0000
1000
1000
0000
0000
0000
0000
0000
,
0001
0000
0000
0000
1000
0000
0010
0000
,
0000
1000
1000
0000
0000
0000
0000
0000
,
0001
0000
0000
0000
1000
0000
0010
0000
,
0000
1000
1000
0000
0000
0000
0000
0000
,
0001
0000
0000
0000
1000
0000
0010
0000
,
0000
1000
1000
0000
0000
0000
0000
0000
,
1000
0100
0000
0000
1000
0000
0010
0001
,
0000
0001
0100
0000
0010
0000
0000
0000
,
1000
0001
0100
0000
0010
0000
1000
0000
,
0000
0001
0100
0000
0010
0000
0000
0000
,
1001
0000
1000
0000
0011
0000
0001
1000
,
0000
0001
0100
0000
0010
0000
0000
0000
,
0001
0000
0010
0100
1000
0000
0100
0000
,
0000
0001
0100
0000
0010
0000
0000
0000
,
0001
0000
0010
0100
1000
0000
0100
0000
,
0000
0001
0100
0000
0010
0000
0000
0000
,
0001
0000
0010
0100
1000
0000
0100
0000
,
0000
0001
0100
0000
0010
0000
0000
0000
,
1000
0001
0100
0000
0010
0000
1000
0000
,
0000
0001
0100
0000
0010
0000
0000
0000
,
0001
0000
0010
0100
1000
0000
0100
0000
,
0000
0001
0100
0000
0010
0000
0000
0000
,
0001
0000
0010
0100
1000
0000
0100
0000
,
0000
0001
0001
0000
0000
0000
0010
0000
,
0001
0000
0000
0000
1000
0000
0010
0000
,
0000
1000
1000
0000
0000
0000
0000
0000
,
0001
0000
0000
0000
1000
0000
0010
0000
,
0000
0000
1000
0000
0000
0000
0001
0000
,
0001
0000
0000
0000
1000
0000
0010
0000
,
0000
1000
1000
0000
0000
0000
0000
0000
,
0001
0000
0000
0000
1000
0000
0010
0000
,
0000
0001
0001
0000
0000
0000
0000
0000
,
0001
0000
0000
0000
1000
0000
0010
0000
,
0000
1000
1000
0000
0000
0000
0000
0000
,
1000
0000
0000
0000
0001
0000
1000
0000
,
0000
1000
0100
0000
0000
0000
0000
0000
,
0001
0000
0000
0000
1000
0000
0010
0000
,
0000
0001
0001
0000
0000
0000
0010
0000
,
1000
0100
0000
0000
1000
0000
0010
0001
,
0000
0001
0100
0000
0010
0000
0000
0000
,
0001
0000
0010
0100
1000
0000
0100
0000
,
0000
0001
0100
0000
0010
0000
0000
0000
,
0001
0000
0010
0100
1000
0000
0100
0000
,
0000
0001
0100
0000
0010
0000
0000
0000
,
0001
0000
0010
0100
1000
0000
0100
0000
,
0000
0001
0100
0000
0010
0000
0000
0000
,
0001
0000
0010
0100
1000
0000
0100
0000
,
1000
0000
1000
0000
0100
0000
0100
0000
,
1000
0000
0010
0100
0001
0000
0100
0000
,
0000
0001
0100
0000
0010
0000
0000
0000
,
1000
0000
0010
0100
0001
0000
0100
0000
,
0000
0001
0100
0000
0010
0000
0000
0000
,
0001
0000
0010
0100
1000
0000
0100
0000
,
0000
0001
0100
0000
0010
0000
0000
0000
,
1000
0000
0010
0100
0001
0000
0100
0000
,
0000
0001
0100
0000
0010
0000
0000
0000
,
0001
0000
0010
0100
1000
0000
0100
0000
,
1000
0000
1000
0000
0100
0000
0100
0000
,
1000
0000
0010
0100
0001
0000
0100
0000
,
0000
0001
0100
0000
0010
0000
0000
0000
,
0001
0000
0010
0100
1000
0000
0100
0000
,
0000
0001
0100
0000
0010
0000
0000
0000
,
;
