#VERSION:0.83;
#TITLE:Players;
#SUBTITLE:;
#ARTIST:Coi Leray;
#TITLETRANSLIT:;
#SUBTITLETRANSLIT:;
#ARTISTTRANSLIT:;
#GENRE:;
#ORIGIN:;
#CREDIT:Gorilla v1.1.3 (Dancing Monkeys v1.06);
#BANNER:;
#BACKGROUND:;
#PREVIEWVID:;
#JACKET:;
#CDIMAGE:;
#DISCIMAGE:;
#LYRICSPATH:;
#CDTITLE:;
#MUSIC:Coi Leray - Players (Lyrics) I just wanna have a good night [Tiktok Song].mp3;
#OFFSET:-0.678771;
#SAMPLESTART:57.826687;
#SAMPLELENGTH:12.000000;
#SELECTABLE:YES;
#BPMS:0.000=104.991;
#STOPS:;
#DELAYS:;
#WARPS:;
#TIMESIGNATURES:0.000=4=4;
#TICKCOUNTS:0.000=4;
#COMBOS:0.000=1;
#SPEEDS:0.000=1.000=0.000=0;
#SCROLLS:0.000=1.000;
#FAKES:;
#LABELS:0.000=Song Start;
#BGCHANGES:;
#KEYSOUNDS:;
#ATTACKS:
;

//---------------dance-single - Basic----------------
#NOTEDATA:;
#CHARTNAME:Basic;
#STEPSTYPE:dance-single;
#DESCRIPTION:Basic;
#CHARTSTYLE:;
#DIFFICULTY:Easy;
#METER:3;
#RADARVALUES:0.124457,0.107298,0.000000,0.000000,0.000000,102.000000,102.000000,0.000000,0.000000,0.000000,0.000000,0.000000,0.000000,0.000000,0.124457,0.107298,0.000000,0.000000,0.000000,102.000000,102.000000,0.000000,0.000000,0.000000,0.000000,0.000000,0.000000,0.000000;
#CREDIT:Basic;
#NOTES:
// measure 0
1000
0000
0010
0000
,  // measure 1
1000
0000
0100
0000
,  // measure 2
0001
0000
0010
0000
,  // measure 3
1000
0000
0010
0000
,  // measure 4
1000
0000
0010
0000
,  // measure 5
1000
0000
0100
0000
,  // measure 6
1000
0000
0010
0000
,  // measure 7
1000
0000
0100
0000
,  // measure 8
0001
0000
0100
0000
,  // measure 9
1000
0000
0010
0000
,  // measure 10
1000
0000
0010
0000
,  // measure 11
1000
0000
0010
0000
,  // measure 12
1000
0000
0010
0000
,  // measure 13
1000
0000
0100
0000
,  // measure 14
1000
0000
0010
0000
,  // measure 15
1000
0000
0010
0000
,  // measure 16
1000
0000
0010
0000
,  // measure 17
1000
0000
0100
0000
,  // measure 18
1000
0000
0010
0000
,  // measure 19
1000
0000
0010
0000
,  // measure 20
1000
0000
0100
0000
,  // measure 21
1000
0000
0100
0000
,  // measure 22
1000
0000
0100
0000
,  // measure 23
1000
0000
0010
0000
,  // measure 24
1000
0000
0100
0000
,  // measure 25
1000
0000
0010
0000
,  // measure 26
0100
0000
1000
0000
,  // measure 27
0001
0000
0010
0000
,  // measure 28
1000
0000
0010
0000
,  // measure 29
1000
0000
0100
0000
,  // measure 30
1000
0000
0010
0000
,  // measure 31
1000
0000
0100
0000
,  // measure 32
1000
0000
0010
0000
,  // measure 33
1000
0000
0010
0000
,  // measure 34
1000
0000
0010
0000
,  // measure 35
1000
0000
0010
0000
,  // measure 36
1000
0000
0100
0000
,  // measure 37
0001
0000
0010
0000
,  // measure 38
1000
0000
0010
0000
,  // measure 39
1000
0000
0010
0000
,  // measure 40
1000
0000
0010
0000
,  // measure 41
1000
0000
0100
0000
,  // measure 42
0001
0000
0010
0000
,  // measure 43
1000
0000
0010
0000
,  // measure 44
1000
0000
0010
0000
,  // measure 45
1000
0000
0100
0000
,  // measure 46
0001
0000
0100
0000
,  // measure 47
1000
0000
0010
0000
,  // measure 48
1000
0000
0010
0000
,  // measure 49
1000
0000
0010
0000
,  // measure 50
0100
0100
0000
0000
;
