#TITLE:I Can Make You Happy;
#SUBTITLE:;
#ARTIST:Scooby Doo;
#TITLETRANSLIT:;
#SUBTITLETRANSLIT:;
#ARTISTTRANSLIT:;
#GENRE:;
#CREDIT:Gorilla v1.1.3 (Dancing Monkeys v1.06);
#BANNER:;
#BACKGROUND:;
#LYRICSPATH:;
#CDTITLE:;
#MUSIC:Austin Roberts - I Can Make You Happy (IMPROVED AUDIO).mp3;
#OFFSET:-1.280590;
#SAMPLESTART:43.582172;
#SAMPLELENGTH:12.000000;
#SELECTABLE:YES;
#BPMS:0.000000=141.838654
;
#STOPS:
;
#BGCHANGES:;
#KEYSOUNDS:;
#ATTACKS:;

//---------------dance-single - Basic----------------
#NOTES:
     dance-single:
     Basic:
     Easy:
     3:
     0.084420,0.114981,0.000000,0.023327,0.000000,76.000000,76.000000,0.000000,3.000000,0.000000,0.000000,0.084420,0.114981,0.000000,0.023327,0.000000,76.000000,76.000000,0.000000,3.000000,0.000000,0.000000:
// measure 0
0000
0001
0000
0000
,  // measure 1
1000
0000
0000
0000
,  // measure 2
1000
0000
0010
0000
,  // measure 3
0001
0000
0010
0000
,  // measure 4
0001
0000
0010
0000
,  // measure 5
1000
0000
0001
0000
,  // measure 6
1000
0000
0010
0000
,  // measure 7
0100
0000
0001
0000
,  // measure 8
1000
0000
0010
0000
,  // measure 9
0001
0000
0010
0000
,  // measure 10
1000
0000
0100
0000
,  // measure 11
1000
0000
0000
0000
,  // measure 12
0001
0000
1000
0000
,  // measure 13
0010
0000
1000
0000
,  // measure 14
0010
0000
0100
0000
,  // measure 15
1000
0000
0010
0000
,  // measure 16
0000
1000
0000
0010
,  // measure 17
0000
0010
0000
0001
,  // measure 18
0000
0000
1000
0000
,  // measure 19
0001
0000
0010
0000
,  // measure 20
0001
0000
0002
0000
,  // measure 21
0000
0000
0000
0000
,  // measure 22
0003
0000
2000
0000
,  // measure 23
0000
0000
0000
0000
,  // measure 24
0000
0000
3000
0000
,  // measure 25
0001
0000
0010
0000
,  // measure 26
0100
0000
1000
0000
,  // measure 27
0001
0000
0010
0000
,  // measure 28
1000
0000
0010
0000
,  // measure 29
0100
0000
1000
0000
,  // measure 30
0010
0000
0001
0001
,  // measure 31
1000
0000
0100
0100
,  // measure 32
0100
0000
0000
0002
,  // measure 33
0000
0000
0000
0003
,  // measure 34
0000
1000
0000
1000
,  // measure 35
0000
0010
0000
1000
,  // measure 36
0000
0010
0000
0001
,  // measure 37
0000
0100
0000
0010
,  // measure 38
0000
1000
0000
0001
,  // measure 39
0000
0010
0000
0100
,  // measure 40
0000
1000
0000
0010
,  // measure 41
0010
1000
1000
0000
,  // measure 42
1000
0001
0000
0000
;
