#TITLE:I Am All of Mewtwo (Shadow Vs. Mewtwo);
#SUBTITLE:;
#ARTIST:Death Battle;
#TITLETRANSLIT:;
#SUBTITLETRANSLIT:;
#ARTISTTRANSLIT:;
#GENRE:;
#CREDIT:Gorilla v1.1.3 (Dancing Monkeys v1.06);
#BANNER:mywyaxresdefault.png;
#BACKGROUND:deolj7v-88bb1661-de61-4861-84c8-b3f0bf12b130.png;
#LYRICSPATH:;
#CDTITLE:;
#MUSIC:[8bit Rock] I Am All Of Mewtwo.mp3;
#OFFSET:-0.773492;
#SAMPLESTART:47.022652;
#SAMPLELENGTH:12.000000;
#SELECTABLE:YES;
#BPMS:0.000000=192.003479
;
#STOPS:
;
#BGCHANGES:;
#KEYSOUNDS:;
#ATTACKS:;

//---------------dance-single - Basic----------------
#NOTES:
     dance-single:
     Basic:
     Easy:
     1:
     0.149059,0.236340,0.000000,0.062856,0.000000,166.000000,166.000000,0.000000,10.000000,0.000000,0.000000,0.149059,0.236340,0.000000,0.062856,0.000000,166.000000,166.000000,0.000000,10.000000,0.000000,0.000000:
// measure 0
2000
0000
0000
0000
,  // measure 1
3000
0000
1000
0000
,  // measure 2
1000
0000
0010
0000
,  // measure 3
1000
0000
0010
0000
,  // measure 4
0001
0001
0000
0000
,  // measure 5
1000
0000
0001
0000
,  // measure 6
1000
0000
1000
0000
,  // measure 7
0001
0000
0010
0000
,  // measure 8
0001
0000
0010
0000
,  // measure 9
1000
0000
0100
0000
,  // measure 10
0001
0001
0010
0010
,  // measure 11
1000
1000
2000
0000
,  // measure 12
0000
3000
0000
0000
,  // measure 13
1000
0000
0010
0000
,  // measure 14
1000
0000
0100
0000
,  // measure 15
1000
0000
0010
0000
,  // measure 16
1000
0000
0100
0100
,  // measure 17
0100
0100
0020
0000
,  // measure 18
0000
0000
0000
0000
,  // measure 19
0000
0000
0030
0000
,  // measure 20
1000
0000
0010
0000
,  // measure 21
1000
0000
0100
0000
,  // measure 22
0001
0000
0010
0000
,  // measure 23
1000
0000
0200
0000
,  // measure 24
0000
0000
0000
0000
,  // measure 25
0300
0000
1000
0000
,  // measure 26
1000
0000
0010
0000
,  // measure 27
0001
0000
2000
0000
,  // measure 28
0000
0000
0000
3000
,  // measure 29
0000
0000
0010
0000
,  // measure 30
0000
0001
0100
0000
,  // measure 31
0000
0000
0001
1000
,  // measure 32
0001
0000
0010
0000
,  // measure 33
0010
0000
0001
0000
,  // measure 34
0000
0000
2000
0000
,  // measure 35
3000
0000
1000
0000
,  // measure 36
1000
0000
1000
0000
,  // measure 37
1000
0000
0000
0010
,  // measure 38
0010
0000
0000
0001
,  // measure 39
0001
0000
0010
0000
,  // measure 40
0002
0000
0000
0000
,  // measure 41
0003
0000
1000
0000
,  // measure 42
1000
0000
0010
0000
,  // measure 43
1000
0000
0010
0000
,  // measure 44
1000
0000
0010
0000
,  // measure 45
1000
0000
0100
0000
,  // measure 46
0001
0000
1000
0000
,  // measure 47
0010
0000
0001
0000
,  // measure 48
0001
0000
0100
0000
,  // measure 49
1000
0000
0100
0000
,  // measure 50
1000
0000
0100
0000
,  // measure 51
1000
0000
0010
0000
,  // measure 52
1000
0000
1000
0000
,  // measure 53
1000
0000
0010
0000
,  // measure 54
0010
0000
0010
0000
,  // measure 55
1000
0000
0010
0000
,  // measure 56
0001
0000
0001
0000
,  // measure 57
1000
0000
0010
0000
,  // measure 58
1000
0000
0010
0000
,  // measure 59
1000
0000
0200
0000
,  // measure 60
0000
0300
0000
0000
,  // measure 61
1000
0000
0010
0000
,  // measure 62
0100
0000
1000
0000
,  // measure 63
0010
0000
0001
0000
,  // measure 64
1000
0000
1000
0000
,  // measure 65
0010
0000
0001
0000
,  // measure 66
0010
0000
1000
0000
,  // measure 67
0010
0000
0200
0000
,  // measure 68
0000
0000
0000
0000
,  // measure 69
0000
0000
0000
0000
,  // measure 70
0300
0000
1000
0000
,  // measure 71
0010
0000
0100
0000
,  // measure 72
1000
0000
0010
0000
,  // measure 73
0100
0000
0001
0000
,  // measure 74
0010
0000
1000
0000
,  // measure 75
0010
0000
0100
0000
,  // measure 76
0001
0000
0010
0000
,  // measure 77
1000
0000
0010
0000
,  // measure 78
0100
0000
0001
0000
,  // measure 79
0010
0000
1000
0000
,  // measure 80
0010
0000
1000
0000
,  // measure 81
0010
0000
1000
0000
,  // measure 82
0001
0000
0010
0000
,  // measure 83
1000
0000
0010
0000
,  // measure 84
0100
0000
0001
0000
,  // measure 85
0010
0000
1000
0000
,  // measure 86
0010
0000
0100
0000
,  // measure 87
0001
0000
0010
0000
,  // measure 88
1000
0000
0010
0000
,  // measure 89
0100
0000
1000
0000
,  // measure 90
1000
0000
1000
0000
,  // measure 91
1000
0000
1000
0000
,  // measure 92
1000
0000
2000
0000
,  // measure 93
0000
0000
0000
0000
,  // measure 94
3000
0000
0000
0000
;
