#VERSION:0.83;
#TITLE:HOW DO YOU DO (FULL SONG);
#SUBTITLE:;
#ARTIST:Dancing Monkeys Project;
#TITLETRANSLIT:;
#SUBTITLETRANSLIT:;
#ARTISTTRANSLIT:;
#GENRE:;
#ORIGIN:;
#CREDIT:Gorilla v1.1.3 (Dancing Monkeys v1.06);
#BANNER:hq720.png;
#BACKGROUND:ab67616d0000b27350be2258d4cee85743083a49.png;
#PREVIEWVID:;
#JACKET:;
#CDIMAGE:;
#DISCIMAGE:;
#LYRICSPATH:;
#CDTITLE:;
#MUSIC:onlymp3.to - How Do You Do C. Baumann Edit -FG177md_OxQ-192k-1696868023.mp3;
#OFFSET:-1.704667;
#SAMPLESTART:43.083832;
#SAMPLELENGTH:12.000000;
#SELECTABLE:YES;
#BPMS:0.000=145.001;
#STOPS:;
#DELAYS:;
#WARPS:;
#TIMESIGNATURES:0.000=4=4;
#TICKCOUNTS:0.000=4;
#COMBOS:0.000=1;
#SPEEDS:0.000=1.000=0.000=0;
#SCROLLS:0.000=1.000;
#FAKES:;
#LABELS:0.000=Song Start;
#BGCHANGES:;
#KEYSOUNDS:;
#ATTACKS:
;

//---------------dance-single - Basic----------------
#NOTEDATA:;
#CHARTNAME:Basic;
#STEPSTYPE:dance-single;
#DESCRIPTION:Basic;
#CHARTSTYLE:;
#DIFFICULTY:Easy;
#METER:6;
#RADARVALUES:0.322010,0.283516,0.018745,0.000000,0.000000,481.000000,477.000000,4.000000,0.000000,0.000000,0.000000,0.000000,0.000000,0.000000,0.322010,0.283516,0.018745,0.000000,0.000000,481.000000,477.000000,4.000000,0.000000,0.000000,0.000000,0.000000,0.000000,0.000000;
#CREDIT:Basic;
#NOTES:
// measure 0
1001
0001
0010
0001
,  // measure 1
1000
0010
1000
0001
,  // measure 2
0100
0010
1000
0001
,  // measure 3
0001
0100
1000
0010
,  // measure 4
0001
0010
1000
0100
,  // measure 5
0001
0010
1000
0100
,  // measure 6
0010
0001
0010
1000
,  // measure 7
0100
0010
1000
0001
,  // measure 8
1000
0001
0010
0001
,  // measure 9
1000
0010
0001
0100
,  // measure 10
0001
0010
1000
0100
,  // measure 11
1000
0001
0010
0100
,  // measure 12
0001
0010
1000
0100
,  // measure 13
0001
0100
1000
0001
,  // measure 14
1000
0010
0100
0010
,  // measure 15
0001
0100
0001
0100
,  // measure 16
1000
0010
0001
0100
,  // measure 17
0010
0100
0001
0010
,  // measure 18
1000
0001
0010
1000
,  // measure 19
0100
0001
1000
0100
,  // measure 20
0001
0010
1000
0100
,  // measure 21
1000
0010
0001
0100
,  // measure 22
1000
0010
0100
1000
,  // measure 23
0001
0010
0100
0001
,  // measure 24
0010
0001
1000
0100
,  // measure 25
0001
0001
0010
0100
,  // measure 26
0001
1000
0001
1000
,  // measure 27
0010
0100
0001
0100
,  // measure 28
0001
1000
0010
0100
,  // measure 29
1000
0001
0010
0001
,  // measure 30
0100
0010
1000
0001
,  // measure 31
0100
0001
0100
0010
,  // measure 32
1000
0100
0010
0001
,  // measure 33
1000
0010
0001
0010
,  // measure 34
1000
0001
0010
0100
,  // measure 35
0001
1000
0100
0010
,  // measure 36
1000
0001
0100
0010
,  // measure 37
1000
0001
0010
0100
,  // measure 38
0001
1000
0010
0100
,  // measure 39
0001
1000
0100
0010
,  // measure 40
1000
0100
0010
0001
,  // measure 41
0010
1000
0010
0001
,  // measure 42
1000
0010
0001
0010
,  // measure 43
1000
0001
0010
0100
,  // measure 44
1000
0001
0100
0010
,  // measure 45
1000
0001
0100
0010
,  // measure 46
0001
1000
0100
0010
,  // measure 47
0001
1000
0100
0010
,  // measure 48
1000
0100
0010
0001
,  // measure 49
1000
0001
0010
0100
,  // measure 50
1000
0001
1000
0100
,  // measure 51
0001
1000
0100
0010
,  // measure 52
0001
1000
0010
0100
,  // measure 53
0001
1000
0100
0010
,  // measure 54
1000
0001
0010
0100
,  // measure 55
1000
0001
0100
0010
,  // measure 56
1000
0100
0010
0001
,  // measure 57
0010
1000
0010
0100
,  // measure 58
0001
0010
1000
0001
,  // measure 59
0100
0001
1000
0001
,  // measure 60
0100
0001
1000
0010
,  // measure 61
0001
0100
0010
1000
,  // measure 62
0010
0001
0010
1000
,  // measure 63
0010
1000
0100
0001
,  // measure 64
1000
0100
0010
0100
,  // measure 65
0001
1000
0010
1000
,  // measure 66
0100
0001
0100
0010
,  // measure 67
1000
0001
0100
0010
,  // measure 68
1000
0001
0010
1000
,  // measure 69
0010
0001
0010
0100
,  // measure 70
1000
0010
0001
0010
,  // measure 71
1000
0001
0010
0100
,  // measure 72
0001
0010
1000
0001
,  // measure 73
0010
0100
1000
0100
,  // measure 74
1001
0100
0010
0100
,  // measure 75
0001
1000
0010
0100
,  // measure 76
0010
0001
0100
0010
,  // measure 77
1000
0100
0010
0100
,  // measure 78
0001
0010
0100
0010
,  // measure 79
0100
1000
0100
0010
,  // measure 80
1000
0001
0100
0001
,  // measure 81
1000
0001
0010
0001
,  // measure 82
1000
0010
0001
0010
,  // measure 83
1000
0001
0010
0100
,  // measure 84
0001
1000
0100
0010
,  // measure 85
0001
1000
0010
0100
,  // measure 86
0001
1000
0010
0100
,  // measure 87
0001
1000
0100
0010
,  // measure 88
0001
1000
0100
0010
,  // measure 89
1000
0100
0010
0001
,  // measure 90
1000
0010
0100
0001
,  // measure 91
1000
0010
0100
0001
,  // measure 92
1000
0100
0010
1000
,  // measure 93
0001
0010
0100
0001
,  // measure 94
1000
0100
0010
1000
,  // measure 95
0001
0010
0100
1000
,  // measure 96
0001
0010
0100
0001
,  // measure 97
1000
0010
0100
0001
,  // measure 98
1000
0010
1000
0100
,  // measure 99
0001
0010
1000
0100
,  // measure 100
1000
0100
0001
0100
,  // measure 101
0001
0010
1000
0100
,  // measure 102
1000
0010
0001
0100
,  // measure 103
0001
0100
1000
0010
,  // measure 104
1000
0001
1000
0000
,  // measure 105
0000
0000
0000
0000
,  // measure 106
0000
1001
0000
0000
0000
0000
0000
0000
,  // measure 107
1001
0100
0010
1000
,  // measure 108
0100
0010
0001
0010
,  // measure 109
1000
0001
0010
0100
,  // measure 110
1000
0001
0010
0100
,  // measure 111
0001
1000
0100
0010
,  // measure 112
1000
0001
0010
0100
,  // measure 113
1000
0001
0010
0100
,  // measure 114
1000
0100
0010
0001
,  // measure 115
1000
0001
0010
0100
,  // measure 116
0001
1000
0010
0100
,  // measure 117
1000
0001
0010
0100
,  // measure 118
1000
0100
0001
0010
,  // measure 119
1000
0001
0010
0100
,  // measure 120
1000
0100
0001
0010
,  // measure 121
0100
0000
0000
0000
;

//---------------dance-single - Standard----------------
#NOTEDATA:;
#CHARTNAME:Standard;
#STEPSTYPE:dance-single;
#DESCRIPTION:Standard;
#CHARTSTYLE:;
#DIFFICULTY:Medium;
#METER:7;
#RADARVALUES:0.438495,0.491935,0.164017,0.009372,0.000000,655.000000,620.000000,35.000000,2.000000,0.000000,0.000000,0.000000,0.000000,0.000000,0.438495,0.491935,0.164017,0.009372,0.000000,655.000000,620.000000,35.000000,2.000000,0.000000,0.000000,0.000000,0.000000,0.000000;
#CREDIT:Standard;
#NOTES:
0011
1000
1000
0000
0001
0000
1000
0000
,
0001
0000
0000
0000
0000
0000
0020
0000
,
1000
0000
0000
0000
0000
0000
0010
0000
,
0031
0000
0000
0000
0000
0000
0010
0000
,
0001
0000
0000
0000
0000
0000
0020
0000
,
0001
0000
0000
0000
0000
0000
0010
0000
,
0001
0000
0000
0000
0000
0000
0100
0000
,
1030
0000
0000
0000
0000
0000
0010
0000
,
0011
0000
1000
0000
0001
0000
1000
0000
,
1000
0000
0010
0001
0001
0000
0100
0000
,
0001
0000
0100
0000
0010
0000
0100
0000
,
1000
0000
0010
0001
0001
0000
0100
0000
,
0001
0000
0100
0000
0010
0000
0100
0000
,
1000
0000
0100
0000
0010
0000
0100
0000
,
0001
0000
0100
0000
0001
0000
1000
0000
,
0001
0000
0100
0000
0010
0000
0100
0000
,
0001
0000
0100
0000
0010
0000
0100
0000
,
1000
0000
0100
0000
0010
0000
0100
0000
,
0001
0000
0000
0000
0000
0000
0100
0000
,
0001
0000
0100
0000
0010
0000
0100
0000
,
1000
0000
0100
0000
0010
0000
0100
0000
,
0001
0000
0100
0000
0010
0000
0100
0000
,
0001
0000
0100
0000
0001
0000
1000
0000
,
1000
0000
0010
0000
1000
0000
0001
0000
,
0000
0000
0000
0000
1000
0000
0100
0000
,
1010
0000
0100
1000
0100
0010
0001
0000
,
1010
0000
0100
0001
1000
0010
1000
0000
,
0011
0000
0100
1000
0001
0010
0001
0000
,
1010
0000
0100
0001
1000
0010
1000
0000
,
0011
0000
0100
1000
0001
0010
0001
0000
,
1010
0000
0100
0001
1000
0010
1000
0000
,
1100
0000
0010
0001
1000
0100
1000
0001
,
0001
0000
0000
0000
0000
0000
0100
0000
,
0110
0000
0100
0001
1000
0010
0100
0000
,
1000
0010
0100
0010
0100
0010
0100
0000
,
1000
0100
0010
0100
0010
0100
0010
0000
,
0001
0010
0100
0010
0100
0010
0100
0000
,
0001
0010
0100
0010
0100
0010
0100
0000
,
1000
0010
0100
0010
0100
0010
0100
0000
,
0001
0100
0010
0100
0010
0100
0010
0000
,
0000
0000
0000
0000
1000
0000
0001
0000
,
1010
0000
0100
0001
1000
0010
1000
0000
,
0110
0000
0100
0001
1000
0010
0100
0000
,
1000
0010
0100
0010
0100
0010
0100
0000
,
0001
0100
0010
0100
0010
0100
0010
0000
,
1000
0100
0010
0100
0010
0100
0010
0000
,
1000
0100
0010
0100
0010
0100
0010
0000
,
1000
0100
0010
0100
0010
0100
0010
0000
,
0000
0000
0000
0000
1000
0000
0001
0000
,
1000
0010
0100
0010
0100
0010
0100
0000
,
0001
0010
0100
0010
0100
0010
0100
0000
,
0001
0100
0010
0100
0010
0100
0010
0000
,
0001
0010
0100
0010
0100
0010
0100
0000
,
0001
0100
0010
0100
0010
0100
0010
0000
,
1000
0100
0010
0100
0010
0100
0010
0000
,
0001
0100
0010
0100
0010
0100
0010
0000
,
0000
0000
0000
0000
1000
0000
0001
0000
,
1010
0000
0100
1000
0100
0010
0001
0000
,
0101
0000
0010
0001
0010
0100
1000
0000
,
0101
0000
0010
0001
0010
0100
1000
0000
,
1010
0000
0100
1000
0100
0010
0001
0000
,
0011
0000
0100
0001
0100
0010
1000
0000
,
1010
0000
0100
0001
1000
0010
1000
0000
,
0011
0000
0100
1000
0001
0010
0001
1000
,
1000
0000
0000
0000
0010
1000
0100
0000
,
1010
0000
0100
0001
1000
0010
1000
0000
,
1010
0000
0100
0001
1000
0010
1000
0000
,
1100
0000
0010
0001
1000
0100
1000
0000
,
1100
0000
0010
0001
1000
0100
1000
0001
,
1000
0010
0100
0010
0100
0010
0100
0000
,
0110
0000
0100
0001
1000
0010
0100
0000
,
1000
0010
0100
0010
0100
0010
0100
0000
,
0200
0000
0000
0000
0000
0000
0000
0000
,
0300
0000
0000
0000
1000
0000
0100
0000
,
1010
0000
0100
1000
0100
0010
0001
0000
,
1010
0000
0100
0001
1000
0010
1000
0000
,
1100
0000
0010
0001
1000
0100
1000
0000
,
1010
0000
0100
0001
1000
0010
1000
0000
,
1100
0000
0010
0001
1000
0100
1000
0000
,
0101
0000
0010
1000
0001
0100
0001
0000
,
0011
0000
0100
1000
0001
0010
0001
1000
,
0001
0000
0000
0000
0000
0000
0100
0000
,
0110
0000
0100
0001
1000
0010
0100
0000
,
1000
0010
0100
0010
0100
0010
0100
0000
,
1000
0100
0010
0100
0010
0100
0010
0000
,
1000
0010
0100
0010
0100
0010
0100
0000
,
0001
0100
0010
0100
0010
0100
0010
0000
,
1000
0010
0100
0010
0100
0010
0100
0000
,
1000
0010
0100
0010
0100
0010
0100
0000
,
0001
0000
0000
0000
0000
0000
0100
0000
,
0001
0000
0100
0000
0001
0000
1000
0000
,
0001
0000
0000
0000
0000
0000
0100
0000
,
1000
0000
0000
0000
0000
0000
0100
0000
,
1000
0000
0000
0000
0000
0000
0010
0000
,
0001
0000
0000
0000
0000
0000
0010
0000
,
0001
0000
0000
0000
0000
0000
0100
0000
,
0001
0000
0000
0000
0000
0000
0010
0000
,
0001
0000
0000
0000
0000
0000
0010
0000
,
1000
0000
0010
0001
0001
0000
0100
0000
,
0001
0000
0100
0000
0010
0000
0100
0000
,
0001
0000
0100
0000
0010
0000
0100
0000
,
0001
0000
0010
0000
0100
0000
0010
0000
,
1000
0000
0100
0000
0010
0000
0100
0000
,
0001
0000
0010
0000
0100
0000
0010
0000
,
1000
0000
0010
0001
0001
0000
0020
0000
,
0001
0000
0000
0000
0000
0000
0100
0000
,
0030
0000
0000
0000
1000
0000
0001
0000
,
1010
0000
0100
0001
1000
0010
1000
0000
,
0110
0000
0100
0001
1000
0010
0100
0000
,
1000
0010
0100
0010
0100
0010
0100
0000
,
0001
0100
0010
0100
0010
0100
0010
0000
,
0001
0010
0100
0010
0100
0010
0100
0000
,
1000
0100
0010
0100
0010
0100
0010
0000
,
0001
0100
0010
0100
0010
0100
0010
0000
,
0000
0000
0000
0000
1000
0000
0001
0000
,
1000
0010
0100
0010
0100
0010
0100
0000
,
1000
0100
0010
0100
0010
0100
0010
0000
,
1000
0010
0100
0010
0100
0010
0100
0000
,
1000
0000
0100
0000
0010
0001
0100
0001
,
1000
0010
0100
0010
0100
0010
0100
0000
,
1000
0000
0100
0000
0010
0001
0100
0001
,
0001
0000
0010
0000
0100
1000
0010
1000
,
0000
0000
0000
0000
1000
0000
0001
0000
,
1001
0000
0001
0000
0001
0000
0000
0000
,
0000
0000
0000
0000
0000
0000
0000
0000
,
0000
0000
0000
0000
0000
0000
0000
0000
,
0000
0000
0000
0000
0000
0000
0000
0000
,
;

//---------------dance-single - Heavy----------------
#NOTEDATA:;
#CHARTNAME:Heavy;
#STEPSTYPE:dance-single;
#DESCRIPTION:Heavy;
#CHARTSTYLE:;
#DIFFICULTY:Hard;
#METER:8;
#RADARVALUES:0.504772,0.491935,0.164017,0.004686,0.000000,754.000000,719.000000,35.000000,1.000000,0.000000,0.000000,0.000000,0.000000,0.000000,0.504772,0.491935,0.164017,0.004686,0.000000,754.000000,719.000000,35.000000,1.000000,0.000000,0.000000,0.000000,0.000000,0.000000;
#CREDIT:Heavy;
#NOTES:
1100
1000
1000
1000
0100
1000
0001
0001
,
1000
0000
0000
0000
0001
0000
0002
0000
,
1000
0000
0000
0000
0001
0000
0010
0000
,
1003
0000
0000
0000
0001
0000
0100
0000
,
0001
0000
0000
0000
1000
0000
2000
0000
,
0001
0000
0000
0000
1000
0000
0100
0000
,
1000
0000
0000
0000
0001
0000
0010
0000
,
3001
0000
0000
0000
1000
0000
0010
0000
,
1100
0000
1000
1000
0100
1000
0001
0001
,
0001
1000
0001
0100
0100
0001
0010
0000
,
1000
0000
0010
0000
0100
0000
0001
0001
,
0001
1000
0001
0100
0100
0001
0010
0000
,
1000
0000
0010
0000
0100
0000
0001
0001
,
1000
0000
0100
0000
0010
0000
0001
0001
,
0001
0000
1000
0100
1000
0000
0010
0000
,
1000
0000
0010
0000
0100
0000
0001
0001
,
1000
0000
0010
0000
0100
0000
0001
0001
,
1000
0000
0010
0000
0100
0000
0001
0001
,
1000
0000
0000
0000
0001
0000
0010
0000
,
1000
0000
0010
0000
0100
0000
0001
0001
,
0001
0000
0010
0000
0100
0000
1000
1000
,
0001
0000
0100
0000
0010
0000
1000
1000
,
0001
0000
1000
0100
1000
0000
0010
0000
,
1000
0000
0001
0010
0001
0000
0100
0000
,
0000
0000
1000
0000
0100
0010
0100
0000
,
0110
0000
0100
0001
1000
0001
0100
0000
,
0101
0000
0100
0010
1000
0010
0100
0000
,
0101
0000
0100
0010
1000
0010
0100
0000
,
1010
0000
0010
0100
0001
0100
0010
0000
,
1010
0000
0010
0100
0001
0100
0010
0000
,
0101
0000
0100
0010
1000
0010
0100
0000
,
1100
0000
0100
0010
0001
0010
0100
0010
,
1000
0000
0000
0000
0001
0000
0010
0000
,
1001
0000
0010
0100
0010
0100
0010
1000
,
1000
0001
0100
0010
1000
0100
1000
0001
,
0001
1000
0010
0100
0001
0010
0001
1000
,
1000
0001
0100
0010
1000
0100
1000
0001
,
0001
1000
0100
0010
0001
0100
0001
1000
,
1000
0001
0010
0100
1000
0010
1000
0001
,
1000
0001
0100
0010
1000
0100
1000
0001
,
0000
0000
0000
0000
0001
0000
1000
0000
,
0101
0000
0100
0010
1000
0010
0100
0000
,
1001
0000
0010
0100
0010
0100
0010
1000
,
1000
0001
0100
0010
1000
0100
1000
0001
,
0001
1000
0100
0010
0001
0100
0001
1000
,
1000
0001
0100
0010
1000
0100
1000
0001
,
0001
1000
0100
0010
0001
0100
0001
1000
,
1000
0001
0010
0100
1000
0010
1000
0001
,
0000
0000
0000
0000
0001
0000
1000
0000
,
1000
0001
0100
0010
1000
0100
1000
0001
,
0001
1000
0010
0100
0001
0010
0001
1000
,
1000
0001
0100
0010
1000
0100
1000
0001
,
0001
1000
0010
0100
0001
0010
0001
1000
,
0001
1000
0100
0010
0001
0100
0001
1000
,
1000
0001
0100
0010
1000
0100
1000
0001
,
1000
0001
0010
0100
1000
0010
1000
0001
,
0000
0000
0000
0000
0001
0000
1000
0000
,
0110
0000
0100
0001
1000
0001
0100
0000
,
0110
0000
0010
0001
1000
0001
0010
0000
,
0110
0000
0100
1000
0001
1000
0100
0000
,
0110
0000
0010
1000
0001
1000
0010
0000
,
0110
0000
0100
1000
0001
1000
0100
0000
,
0101
0000
0100
0010
1000
0010
0100
0000
,
0011
0000
0010
0100
1000
0100
0010
0100
,
1000
0000
0000
0000
0001
0010
0100
0000
,
0101
0000
0100
0010
1000
0010
0100
0000
,
1010
0000
0010
0100
0001
0100
0010
0000
,
1100
0000
0100
0010
0001
0010
0100
0000
,
1100
0000
0100
0010
0001
0010
0100
0010
,
1000
0001
0100
0010
1000
0100
1000
0000
,
1001
0000
0010
0100
0010
0100
0010
1000
,
1000
0001
0100
0010
1000
0100
1000
0001
,
0020
0000
0000
0000
0000
0000
0000
0000
,
0030
0000
1000
0000
0100
0010
0100
0000
,
0110
0000
0100
0001
1000
0001
0100
0000
,
0101
0000
0100
0010
1000
0010
0100
0000
,
1100
0000
0100
0010
0001
0010
0100
0000
,
0011
0000
0010
0100
1000
0100
0010
0000
,
1010
0000
0010
0100
0001
0100
0010
0000
,
0101
0000
0100
0010
1000
0010
0100
0000
,
1100
0000
0100
0010
0001
0010
0100
0010
,
1000
0000
0000
0000
0001
0000
0010
0000
,
1001
0000
0010
0100
0010
0100
0010
1000
,
1000
0001
0100
0010
1000
0100
1000
0001
,
0001
1000
0010
0100
0001
0010
0001
1000
,
1000
0001
0010
0100
1000
0010
1000
0001
,
1000
0001
0010
0100
1000
0010
1000
0001
,
1000
0001
0100
0010
1000
0100
1000
0001
,
0001
1000
0010
0100
0001
0010
0001
1000
,
1000
0000
0000
0000
0001
0000
0010
0000
,
0001
0000
1000
0100
1000
0000
0010
0000
,
1000
0000
0000
0000
0001
0000
0010
0000
,
0001
0000
0000
0000
1000
0000
0010
0000
,
0001
0000
0000
0000
1000
0000
0100
0000
,
0001
0000
0000
0000
1000
0000
0100
0000
,
0001
0000
0000
0000
1000
0000
0100
0000
,
0001
0000
0000
0000
1000
0000
0010
0000
,
0001
0000
0000
0000
1000
0000
0010
0000
,
0001
1000
0001
0100
0100
0001
0010
0000
,
1000
0000
0010
0000
0100
0000
0001
0001
,
1000
0000
0100
0000
0010
0000
0001
0001
,
1000
0000
0010
0000
0100
0000
0001
0001
,
1000
0000
0100
0000
0010
0000
0001
0001
,
0001
0000
0100
0000
0010
0000
1000
1000
,
0001
1000
0001
0100
0100
0001
2000
0000
,
1000
0000
0000
0000
0001
0000
0010
0000
,
3000
0000
0000
0000
0001
0000
1000
0000
,
0101
0000
0100
0010
1000
0010
0100
0000
,
1001
0000
0010
0100
0010
0100
0010
1000
,
1000
0001
0100
0010
1000
0100
1000
0001
,
0001
1000
0010
0100
0001
0010
0001
1000
,
1000
0001
0010
0100
1000
0010
1000
0001
,
1000
0001
0100
0010
1000
0100
1000
0001
,
1000
0001
0100
0010
1000
0100
1000
0001
,
0000
0000
0000
0000
0001
0000
1000
0000
,
1000
0001
0100
0010
1000
0100
1000
0001
,
1000
0001
0100
0010
1000
0100
1000
0001
,
1000
0001
0100
0010
1000
0100
1000
0001
,
1000
0100
0010
0100
0010
0100
1000
0010
,
1000
0001
0100
0010
1000
0100
1000
0001
,
1000
0100
0010
0100
0010
0100
1000
0010
,
1000
0100
0010
0100
0010
0100
1000
0010
,
0000
0000
0000
0000
0001
0000
1000
0000
,
1100
0000
1000
0000
1000
0000
0000
0000
,
0000
0000
0000
0000
0000
0000
0000
0000
,
0000
0000
0000
0000
0000
0000
0000
0000
,
0000
0000
0000
0000
0000
0000
0000
0000
,
;
