#VERSION:0.83;
#TITLE:onlymp3.to - How Do You Do C. Baumann Edit -FG177md_OxQ-192k-1696868023;
#SUBTITLE:;
#ARTIST:Dancing Monkeys Project;
#TITLETRANSLIT:;
#SUBTITLETRANSLIT:;
#ARTISTTRANSLIT:;
#GENRE:;
#ORIGIN:;
#CREDIT:Gorilla v1.1.3 (Dancing Monkeys v1.06);
#BANNER:;
#BACKGROUND:;
#PREVIEWVID:;
#JACKET:;
#CDIMAGE:;
#DISCIMAGE:;
#LYRICSPATH:;
#CDTITLE:;
#MUSIC:onlymp3.to - How Do You Do C. Baumann Edit -FG177md_OxQ-192k-1696868023.mp3;
#OFFSET:-1.708208;
#SAMPLESTART:43.085289;
#SAMPLELENGTH:12.000000;
#SELECTABLE:YES;
#BPMS:0.000=145.008;
#STOPS:;
#DELAYS:;
#WARPS:;
#TIMESIGNATURES:0.000=4=4;
#TICKCOUNTS:0.000=4;
#COMBOS:0.000=1;
#SPEEDS:0.000=2.000=0.000=0;
#SCROLLS:0.000=1.000;
#FAKES:;
#LABELS:0.000=Song Start;
#BGCHANGES:;
#KEYSOUNDS:;
#ATTACKS:
;

//---------------dance-single - Standard----------------
#NOTEDATA:;
#CHARTNAME:Standard;
#STEPSTYPE:dance-single;
#DESCRIPTION:Standard;
#CHARTSTYLE:;
#DIFFICULTY:Medium;
#METER:7;
#RADARVALUES:0.439121,0.464408,0.152265,0.000000,0.000000,323.000000,307.000000,16.000000,0.000000,0.000000,0.000000,0.000000,0.000000,0.000000,0.439121,0.464408,0.152265,0.000000,0.000000,323.000000,307.000000,16.000000,0.000000,0.000000,0.000000,0.000000,0.000000,0.000000;
#CREDIT:Standard;
#NOTES:
0110
1000
0001
0000
0100
0000
1000
0000
,
0001
0000
0000
0000
0010
0000
0200
0000
,
1000
0000
0000
0000
0010
0000
0100
0000
,
0301
0000
0000
0000
0010
0000
0100
0000
,
0001
0000
0000
0000
0100
0000
2000
0000
,
0001
0000
0000
0000
0010
0000
0100
0000
,
1000
0000
0000
0000
0100
0000
0010
0000
,
3000
0000
0000
0000
0010
0000
0100
0000
,
0110
0000
1000
0010
1000
0000
1000
0000
,
0001
0000
1000
0000
0001
0000
0010
0000
,
0001
0000
0000
0000
0010
0000
0100
0000
,
0001
0000
1000
0000
0001
0000
0010
0000
,
0001
0000
1000
0000
0001
0000
0010
0000
,
1000
0000
0001
0000
1000
0000
0010
0000
,
0001
0000
1000
0000
0100
0000
0010
0000
,
1000
0000
1000
0000
0000
0000
0100
0100
,
1000
0000
1000
0000
0000
0000
0100
0100
,
0001
0000
1000
0000
0001
0000
0010
0000
,
0001
0000
0000
0000
0010
0000
0100
0000
,
0001
0000
1000
0000
0001
0000
0010
0000
,
0001
0000
1000
0000
0001
0000
0010
0000
,
0001
0000
1000
0000
0001
0000
0010
0000
,
0001
0000
1000
0000
0100
0000
0010
0000
,
1000
0000
0001
0000
0100
0000
0010
0000
,
0000
0000
0000
0000
1000
0000
0100
0000
,
1001
0000
0100
0010
0001
0010
0001
0000
,
1001
0000
0100
0010
1000
0010
1000
0000
,
1001
0000
0010
0100
1000
0100
1000
0000
,
1001
0000
0100
0010
0001
0010
0001
0000
,
1001
0000
0100
0010
0001
0010
0001
0000
,
1001
0000
0010
0100
0001
0100
0001
0000
,
1010
0000
0100
0001
0100
0001
0100
0001
,
0001
0000
0000
0000
0010
0000
0100
0000
,
1010
0000
0100
0001
0100
0001
0100
0001
,
1000
0010
1000
0001
0100
0010
1000
0000
,
1000
0010
1000
0001
0100
0010
1000
0000
,
0001
0010
0001
1000
0100
0010
0001
0000
,
1000
0100
1000
0001
0010
0100
1000
0000
,
1000
0010
1000
0001
0100
0010
1000
0000
,
1000
0100
1000
0001
0010
0100
1000
0000
,
0001
0000
0000
0000
0000
0000
0000
0000
,
1010
0000
0100
0001
0100
0001
0100
0000
,
1100
0000
0010
0001
0010
0001
0010
0001
,
1000
0010
1000
0001
0100
0010
1000
0000
,
1000
0100
1000
0001
0010
0100
1000
0000
,
1000
0100
1000
0001
0010
0100
1000
0000
,
0001
0100
0001
1000
0010
0100
0001
0000
,
0001
0010
0001
1000
0100
0010
0001
0000
,
0000
0000
0000
0000
0001
0000
0010
0000
,
1000
0010
1000
0001
0100
0010
1000
0000
,
1000
0010
1000
0001
0100
0010
1000
0000
,
1000
0100
1000
0001
0010
0100
1000
0000
,
0001
0010
0001
1000
0100
0010
0001
0000
,
1000
0100
1000
0001
0010
0100
1000
0000
,
0001
0100
0001
1000
0010
0100
0001
0000
,
0001
0100
0001
1000
0010
0100
0001
0000
,
0001
0000
0000
0000
0000
0000
0000
0000
,
1001
0000
0100
0010
0001
0010
0001
0000
,
0110
0000
0100
0010
0100
0010
0100
0000
,
1001
0000
0100
0010
0001
0010
0001
0000
,
0110
0000
0001
0000
0100
0000
1000
0000
,
0001
0000
0000
0000
0000
0000
0000
0000
,
;

//---------------dance-single - Heavy----------------
#NOTEDATA:;
#CHARTNAME:Heavy;
#STEPSTYPE:dance-single;
#DESCRIPTION:Heavy;
#CHARTSTYLE:;
#DIFFICULTY:Hard;
#METER:8;
#RADARVALUES:0.512535,0.493434,0.152265,0.019033,0.000000,377.000000,361.000000,16.000000,2.000000,0.000000,0.000000,0.000000,0.000000,0.000000,0.512535,0.493434,0.152265,0.019033,0.000000,377.000000,361.000000,16.000000,2.000000,0.000000,0.000000,0.000000,0.000000,0.000000;
#CREDIT:Heavy;
#NOTES:
1001
0001
0100
0010
0100
0001
0100
0000
,
1000
0000
0000
0000
0001
0000
0020
0000
,
0001
0000
0000
0000
1000
0000
0001
0000
,
1030
0000
0000
0000
0001
0000
1000
1000
,
0001
0000
0000
0000
1000
0000
0020
0000
,
1000
0000
0000
0000
0001
0000
1000
0000
,
0001
0000
0000
0000
1000
0000
0001
0000
,
0031
0000
0000
0000
1000
0000
0001
0000
,
0101
0000
0010
0100
1000
0100
0100
0100
,
0001
0000
0000
0100
0001
0100
0001
0001
,
1000
0000
0000
0000
0001
0000
1000
1000
,
0001
0000
0000
0100
0001
0100
0001
0001
,
0001
0000
0000
0100
0001
0100
0001
0001
,
0001
0000
0000
0010
0001
0010
0001
0001
,
1000
0000
0010
0100
0001
0000
0100
0000
,
0001
0010
0010
0000
0000
0000
0100
0100
,
1000
0100
0100
0000
0000
0000
0010
0010
,
0001
0000
0000
0100
0001
0100
0001
0001
,
1000
0000
0000
0000
0001
0000
1000
1000
,
0001
0000
0000
0100
0001
0100
0001
0001
,
1000
0000
0000
0100
1000
0100
1000
1000
,
1000
0000
0000
0100
1000
0100
1000
1000
,
1000
0000
0010
0100
0001
0000
0100
0000
,
0001
0000
0010
0100
1000
0000
0100
0000
,
0000
0000
0001
0000
1000
0010
1000
0000
,
0101
0000
0100
0010
1000
0001
0100
0000
,
1010
0000
0010
0100
0001
1000
0010
0000
,
0011
0000
0010
0100
1000
0001
0010
0000
,
1100
0000
0100
0010
0001
1000
0100
0000
,
1010
0000
0010
0100
0001
1000
0010
0000
,
1100
0000
0100
0010
0001
1000
0100
0000
,
1001
0000
0001
0100
0001
0100
0010
0100
,
1000
0000
0000
0000
0001
0000
1000
0000
,
1001
0000
0001
0100
0001
0100
0010
0100
,
1000
0001
0100
0001
0010
0100
1000
0010
,
1000
0001
0010
0001
0100
0010
1000
0100
,
1000
0001
0100
0001
0010
0100
1000
0010
,
1000
0001
0010
0001
0100
0010
1000
0100
,
1000
0001
0010
0001
0100
0010
1000
0100
,
1000
0001
0100
0001
0010
0100
1000
0010
,
1000
0000
0000
0000
0000
0000
0000
0000
,
1001
0000
0001
0100
0001
0100
0010
0000
,
1001
0000
1000
0100
1000
0100
0010
0100
,
1000
0001
0100
0001
0010
0100
1000
0010
,
1000
0001
0100
0001
0010
0100
1000
0010
,
1000
0001
0100
0001
0010
0100
1000
0010
,
0001
1000
0010
1000
0100
0010
0001
0100
,
1000
0001
0010
0001
0100
0010
1000
0100
,
0000
0000
0000
0000
1000
0000
0001
0100
,
1000
0001
0100
0001
0010
0100
1000
0010
,
0001
1000
0010
1000
0100
0010
0001
0100
,
1000
0001
0010
0001
0100
0010
1000
0100
,
1000
0001
0100
0001
0010
0100
1000
0010
,
1000
0001
0010
0001
0100
0010
1000
0100
,
0001
1000
0010
1000
0100
0010
0001
0100
,
0001
1000
0100
1000
0010
0100
0001
0010
,
1000
0000
0000
0000
0000
0000
0000
0000
,
0101
0000
0100
0010
1000
0001
0100
0000
,
1100
0000
0010
0100
0001
0010
0001
0000
,
0101
0000
0100
0010
1000
0001
0100
0000
,
1001
0000
0100
0010
0100
0001
0100
0000
,
1000
0000
0000
0000
0000
0000
0000
0000
,
;

//---------------dance-single - Basic----------------
#NOTEDATA:;
#CHARTNAME:;
#STEPSTYPE:dance-single;
#DESCRIPTION:Basic;
#CHARTSTYLE:;
#DIFFICULTY:Easy;
#METER:6;
#RADARVALUES:0.324923,0.297392,0.019033,0.095166,0.000000,239.000000,237.000000,2.000000,10.000000,0.000000,0.000000,0.000000,0.000000,0.000000,0.324923,0.297392,0.019033,0.095166,0.000000,239.000000,237.000000,2.000000,10.000000,0.000000,0.000000,0.000000,0.000000,0.000000;
#CREDIT:;
#NOTES:
// measure 0
0001
0100
1000
0010
,  // measure 1
0001
1000
0001
0010
,  // measure 2
0100
1000
0100
0010
,  // measure 3
0001
0010
0100
0010
,  // measure 4
0100
0010
1000
0002
,  // measure 5
0000
0003
1000
0100
,  // measure 6
0010
0100
0001
0010
,  // measure 7
0100
0001
1000
0100
,  // measure 8
0001
0100
0010
0100
,  // measure 9
0001
1000
0010
0100
,  // measure 10
1000
0010
0000
0100
,  // measure 11
1000
0001
1000
0010
,  // measure 12
1000
1000
0001
0100
,  // measure 13
0010
0000
1000
0100
,  // measure 14
0001
0100
0002
0003
,  // measure 15
1000
2000
3000
0010
,  // measure 16
1001
2000
3000
0100
,  // measure 17
0002
0003
1000
0200
,  // measure 18
0301
2000
3010
0100
,  // measure 19
1000
0010
0001
0010
,  // measure 20
1000
1000
0001
0010
,  // measure 21
1000
0000
1000
0010
,  // measure 22
0100
1000
0001
1000
,  // measure 23
0001
0100
2000
0000
,  // measure 24
0000
3000
0001
0100
,  // measure 25
1000
0100
1000
0010
,  // measure 26
0001
0100
1000
0010
,  // measure 27
0001
0100
1000
0010
,  // measure 28
0001
0010
1001
0100
,  // measure 29
1000
0100
0001
0010
,  // measure 30
0001
0010
1000
0100
,  // measure 31
0001
0100
0010
0100
,  // measure 32
1000
0200
0300
0010
,  // measure 33
1000
0001
0010
0100
,  // measure 34
1000
0001
0010
0100
,  // measure 35
0001
1000
0010
0100
,  // measure 36
1000
0001
0010
0100
,  // measure 37
1000
0001
0100
0010
,  // measure 38
0001
1000
0100
0010
,  // measure 39
1000
0001
0100
0010
,  // measure 40
0001
1000
0100
0001
,  // measure 41
0001
0100
0010
0100
,  // measure 42
1000
1000
0100
0010
,  // measure 43
1000
0001
0010
0100
,  // measure 44
0001
1000
0010
0100
,  // measure 45
1000
0001
0100
0010
,  // measure 46
0001
1000
0010
0100
,  // measure 47
1000
0001
0100
0010
,  // measure 48
2000
3000
0001
0010
,  // measure 49
1000
0001
0010
0100
,  // measure 50
0001
1000
0100
0010
,  // measure 51
0001
1000
0010
0100
,  // measure 52
0001
1000
0100
0010
,  // measure 53
1000
0001
0010
0100
,  // measure 54
0001
1000
0100
0010
,  // measure 55
0001
1000
0010
0100
,  // measure 56
0001
0010
1000
0100
,  // measure 57
0001
0100
1000
0010
,  // measure 58
1000
0010
1000
0001
,  // measure 59
1000
0001
1000
0001
,  // measure 60
1000
0010
1000
0100
,  // measure 61
0001
1000
0010
1000
,  // measure 62
0100
0010
0100
0000
;
