#VERSION:0.83;
#TITLE:Houdini;
#SUBTITLE:;
#ARTIST:Eminem;
#TITLETRANSLIT:;
#SUBTITLETRANSLIT:;
#ARTISTTRANSLIT:;
#GENRE:;
#ORIGIN:;
#CREDIT:Gorilla v1.1.3 (Dancing Monkeys v1.06);
#BANNER:;
#BACKGROUND:;
#PREVIEWVID:;
#JACKET:;
#CDIMAGE:;
#DISCIMAGE:;
#LYRICSPATH:;
#CDTITLE:;
#MUSIC:Houdini.mp3;
#OFFSET:-1.170229;
#SAMPLESTART:48.413979;
#SAMPLELENGTH:12.000000;
#SELECTABLE:YES;
#BPMS:0.000=127.001;
#STOPS:;
#DELAYS:;
#WARPS:;
#TIMESIGNATURES:0.000=4=4;
#TICKCOUNTS:0.000=4;
#COMBOS:0.000=1;
#SPEEDS:0.000=1.000=0.000=0;
#SCROLLS:0.000=1.000;
#FAKES:;
#LABELS:0.000=Song Start;
#BGCHANGES:;
#KEYSOUNDS:;
#ATTACKS:
;

//---------------dance-single - Basic----------------
#NOTEDATA:;
#CHARTNAME:Basic;
#STEPSTYPE:dance-single;
#DESCRIPTION:Basic;
#CHARTSTYLE:;
#DIFFICULTY:Easy;
#METER:3;
#RADARVALUES:0.130071,0.156986,0.000000,0.000000,0.000000,184.000000,184.000000,0.000000,0.000000,0.000000,0.000000,0.000000,0.000000,0.000000,0.130071,0.156986,0.000000,0.000000,0.000000,184.000000,184.000000,0.000000,0.000000,0.000000,0.000000,0.000000,0.000000,0.000000;
#CREDIT:Basic;
#NOTES:
// measure 0
0000
0000
0000
0000
,  // measure 1
0000
0000
0000
0000
,  // measure 2
0000
0000
0000
0000
,  // measure 3
0010
0010
0010
0000
,  // measure 4
1000
1000
1000
0000
,  // measure 5
0100
0100
0100
0000
,  // measure 6
0001
0001
0001
0000
,  // measure 7
1000
1000
1000
0000
,  // measure 8
0100
0100
0100
0000
,  // measure 9
1000
1000
1000
0000
,  // measure 10
0001
0001
0001
0000
,  // measure 11
0010
0010
0010
0000
,  // measure 12
1000
1000
1000
0000
,  // measure 13
0001
0000
0010
0010
,  // measure 14
0010
0000
0000
0000
,  // measure 15
1000
1000
1000
0000
,  // measure 16
0001
0001
0001
0000
,  // measure 17
0100
0100
0100
0000
,  // measure 18
1000
1000
1000
0000
,  // measure 19
0001
0001
0001
0000
,  // measure 20
1000
1000
1000
0000
,  // measure 21
0001
0001
0001
0000
,  // measure 22
0100
0100
0100
0000
,  // measure 23
0001
0001
0001
0000
,  // measure 24
1000
1000
1000
0000
,  // measure 25
0010
0010
0010
0000
,  // measure 26
0001
0001
0010
0010
,  // measure 27
0010
1000
1000
0000
,  // measure 28
0001
0001
0001
0000
,  // measure 29
1000
0000
0010
0010
,  // measure 30
0001
0001
1000
1000
,  // measure 31
1000
0100
0100
0000
,  // measure 32
0001
0001
0001
0000
,  // measure 33
0100
0100
0100
0000
,  // measure 34
1000
1000
1000
0000
,  // measure 35
0001
0001
0001
0000
,  // measure 36
1000
1000
1000
0000
,  // measure 37
0001
0001
0001
0000
,  // measure 38
1000
1000
1000
0000
,  // measure 39
0001
0001
0001
0000
,  // measure 40
1000
1000
1000
0000
,  // measure 41
0001
0001
0001
0000
,  // measure 42
1000
1000
1000
0000
,  // measure 43
0010
0010
0100
0100
,  // measure 44
1000
1000
1000
0000
,  // measure 45
0001
0001
0100
0100
,  // measure 46
0000
0100
0000
0001
,  // measure 47
0000
0001
0000
0010
,  // measure 48
0000
0010
0000
0001
,  // measure 49
0000
0001
0000
0010
,  // measure 50
0000
0100
0000
1000
,  // measure 51
0000
1000
0000
0010
,  // measure 52
0000
0001
0000
0100
,  // measure 53
0000
0010
0000
0100
,  // measure 54
0000
0001
0000
0100
,  // measure 55
0000
1000
0000
1000
,  // measure 56
0000
0001
0000
0100
,  // measure 57
0000
1000
0000
0010
,  // measure 58
0000
0001
0000
0100
,  // measure 59
0000
1000
0000
0010
,  // measure 60
0000
0001
0000
0100
,  // measure 61
0000
0010
0000
0100
,  // measure 62
0000
0100
0000
1000
,  // measure 63
0000
1000
0000
0010
,  // measure 64
0000
0001
0000
0100
,  // measure 65
0000
1000
0000
0010
,  // measure 66
0000
1000
0000
0010
,  // measure 67
0000
1000
1000
0000
,  // measure 68
0100
0100
0100
0000
,  // measure 69
1000
1000
1000
0000
,  // measure 70
0001
0001
0100
0000
;
