#TITLE:Hot Tub of Love;
#SUBTITLE:;
#ARTIST:American Dad;
#TITLETRANSLIT:;
#SUBTITLETRANSLIT:;
#ARTISTTRANSLIT:;
#GENRE:;
#CREDIT:Gorilla v1.1.3 (Dancing Monkeys v1.06);
#BANNER:a4eab2f6-32b7-4119-82e6-b771c35c5d02_screenshot.png;
#BACKGROUND:https___i.cdn.tbs.com_assets_images_2017_04_american-dad-s7e1-1600x900-1600x900_070820140329.png;
#LYRICSPATH:;
#CDTITLE:;
#MUSIC:American Dad - Hot Tub Song.mp3;
#OFFSET:-0.242177;
#SAMPLESTART:51.803539;
#SAMPLELENGTH:12.000000;
#SELECTABLE:YES;
#BPMS:0.000000=121.020859
;
#STOPS:
;
#BGCHANGES:;
#KEYSOUNDS:;
#ATTACKS:;

//---------------dance-single - Basic----------------
#NOTES:
     dance-single:
     Basic:
     Easy:
     3:
     0.157566,0.225714,0.000000,0.126053,0.000000,105.000000,105.000000,0.000000,12.000000,0.000000,0.000000,0.157566,0.225714,0.000000,0.126053,0.000000,105.000000,105.000000,0.000000,12.000000,0.000000,0.000000:
// measure 0
1000
0000
0001
0000
,  // measure 1
0001
0000
0000
0010
,  // measure 2
0000
0001
0100
0000
,  // measure 3
0001
0000
0010
0000
,  // measure 4
0010
0010
0010
1000
,  // measure 5
1000
0000
0000
0000
,  // measure 6
0001
0001
1000
1000
,  // measure 7
0001
0001
0001
1000
,  // measure 8
1000
1000
0100
0000
,  // measure 9
2000
0000
3000
0000
,  // measure 10
0001
0000
1000
0100
,  // measure 11
1000
0010
1000
0000
,  // measure 12
0001
0001
1000
0000
,  // measure 13
1000
0001
0000
0000
,  // measure 14
1000
0000
0001
0000
,  // measure 15
0100
0000
1000
0002
,  // measure 16
0000
0003
0000
0000
,  // measure 17
1000
0000
0000
0000
,  // measure 18
0010
0000
0001
0000
,  // measure 19
1000
0000
0100
0000
,  // measure 20
0001
0000
0100
0000
,  // measure 21
1000
0100
0100
0000
,  // measure 22
0001
0001
1000
0100
,  // measure 23
1000
0001
0100
0000
,  // measure 24
2000
0000
3000
0010
,  // measure 25
0020
0000
0000
0030
,  // measure 26
0002
0000
0003
0000
,  // measure 27
1000
0000
0010
0000
,  // measure 28
1000
0000
0100
0000
,  // measure 29
1000
0000
0100
0000
,  // measure 30
2000
0000
0000
0000
,  // measure 31
3000
0000
0000
0000
,  // measure 32
0001
0001
0001
0000
,  // measure 33
2000
0000
3000
0000
,  // measure 34
1000
1000
1000
0000
,  // measure 35
0001
0001
0001
1000
,  // measure 36
1000
0100
0100
0000
,  // measure 37
0001
1000
0010
0000
,  // measure 38
1000
0000
0010
0000
,  // measure 39
1000
0000
0100
0000
,  // measure 40
0001
1000
0010
0000
,  // measure 41
0001
0001
0001
0000
,  // measure 42
2000
0000
0000
3000
,  // measure 43
0002
0000
0003
0000
,  // measure 44
0200
0000
0300
0000
,  // measure 45
2000
0000
3000
0001
,  // measure 46
0001
0000
0000
1000
,  // measure 47
1000
0000
0020
0030
;
