#TITLE:Shakira - Hips Don't Lie (Lyrics) ft. Wyclef Jean;
#SUBTITLE:;
#ARTIST:Dancing Monkeys Project;
#TITLETRANSLIT:;
#SUBTITLETRANSLIT:;
#ARTISTTRANSLIT:;
#GENRE:;
#CREDIT:Gorilla v1.1.3 (Dancing Monkeys v1.06);
#BANNER:MV5BMDJhZTNkOTItOWUyMC00NjM4LWIwZTUtMjg0Y2QxYzg2OWEzXkEyXkFqcGdeQXVyNTU5Mzk3Mzk@._V1_ - Copy.png;
#BACKGROUND:MV5BMDJhZTNkOTItOWUyMC00NjM4LWIwZTUtMjg0Y2QxYzg2OWEzXkEyXkFqcGdeQXVyNTU5Mzk3Mzk@._V1_.png;
#LYRICSPATH:;
#CDTITLE:;
#MUSIC:Shakira - Hips Don't Lie (Lyrics) ft. Wyclef Jean.mp3;
#OFFSET:-0.026032;
#SAMPLESTART:30.037371;
#SAMPLELENGTH:12.000000;
#SELECTABLE:YES;
#BPMS:0.000000=199.923996
;
#STOPS:
;
#BGCHANGES:;
#KEYSOUNDS:;
#ATTACKS:;

//---------------dance-single - Basic----------------
#NOTES:
     dance-single:
     Basic:
     Easy:
     3:
     0.169019,0.235158,0.000000,0.029395,0.000000,161.000000,161.000000,0.000000,4.000000,0.000000,0.000000,0.169019,0.235158,0.000000,0.029395,0.000000,161.000000,161.000000,0.000000,4.000000,0.000000,0.000000:
0000
2000
0000
0000
,
0000
0000
0000
3000
,
0002
0000
0000
0000
,
0000
0000
0003
0000
,
0000
2000
0000
0000
,
0000
0000
0000
0000
,
3000
0020
0000
0000
,
0000
0030
0000
0000
,
0000
0001
0100
0000
,
0000
1000
0100
0000
,
0001
1000
0000
0001
,
0001
0001
0000
1000
,
0001
0010
0000
0000
,
0001
0010
0000
0000
,
0001
1000
0000
0000
,
0010
0010
0010
0000
,
1000
1000
0001
0001
,
0000
0001
0001
1000
,
1000
0000
0000
0001
,
0000
1000
0001
1000
,
1000
0100
0000
1000
,
0001
0100
0000
0010
,
1000
0100
0000
1000
,
1000
0010
0000
1000
,
0000
0001
0000
1000
,
0001
0100
0000
0000
,
0000
0001
0000
1000
,
0001
1000
0000
0000
,
0001
0100
0000
0000
,
0000
0010
0000
0000
,
1000
0010
0000
0000
,
1000
0010
0000
0000
,
0000
0001
1000
0000
,
0000
1000
0000
0000
,
0000
1000
0001
0000
,
0000
1000
0000
0000
,
0000
1000
0001
0000
,
0000
1000
0000
0000
,
0000
1000
0001
0000
,
0000
0010
0010
0000
,
0000
0100
0100
0000
,
0000
0010
0000
0000
,
0000
0100
0001
0000
,
0000
0010
0000
0000
,
0000
0001
0100
0000
,
0000
0010
0000
0000
,
0000
0010
1000
0000
,
0000
0001
0001
0000
,
0000
1000
0001
0000
,
0000
0001
0100
0000
,
0000
1000
0001
0000
,
1000
0010
0000
0000
,
0000
1000
0001
0000
,
0001
1000
0000
0000
,
0001
1000
0000
0000
,
0001
0010
0000
0000
,
1000
0000
0100
0001
,
0000
0100
0001
1000
,
1000
0000
0000
0001
,
0000
1000
0001
1000
,
1000
0100
0000
1000
,
0001
0100
0000
0010
,
1000
0100
0000
1000
,
1000
0010
0000
1000
,
0000
0001
0000
1000
,
0001
0100
0000
0000
,
0000
0001
0000
1000
,
0001
1000
0000
0000
,
0001
1000
0000
0000
,
1000
0010
0000
0000
,
0001
0010
0000
0000
,
0000
1000
0001
0000
,
1000
0010
0000
0000
,
0001
1000
0001
1000
,
0000
0000
0001
1000
,
0001
1000
0000
0000
,
0001
0010
0000
0000
,
0000
1000
0000
0000
,
1000
0010
0000
0000
,
0000
0001
0000
1000
,
1000
0000
0000
0000
;
