#TITLE:Hi Hi Puffy AmiYumi Theme (Spanish);
#SUBTITLE:;
#ARTIST:Puffy AmiYumi;
#TITLETRANSLIT:;
#SUBTITLETRANSLIT:;
#ARTISTTRANSLIT:;
#GENRE:;
#CREDIT:;
#BANNER:Hi Hi Puffy AmiYumi Theme (Spanish).png;
#BACKGROUND:Hi Hi Puffy AmiYumi Theme (Spanish)-bg.png;
#LYRICSPATH:;
#CDTITLE:;
#MUSIC:Hi Hi Puffy AmiYumi Theme (Spanish).ogg;
#OFFSET:1.560000;
#SAMPLESTART:28.740000;
#SAMPLELENGTH:15.000000;
#LASTBEATHINT:1.773333;
#SELECTABLE:YES;
#DISPLAYBPM:190.000000;
#BPMS:0.000000=190.000000
,180.000000=180.000000
,182.000000=150.000000
,184.000000=90.000000
;
#STOPS:
;
#BGCHANGES:;
#KEYSOUNDS:;
#ATTACKS:;

//---------------dance-single - ----------------
#NOTES:
     dance-single:
     :
     Easy:
     7:
     0.233153,0.298167,0.000000,0.097645,0.000000,117.000000,117.000000,0.000000,7.000000,0.000000,0.000000,0.233153,0.298167,0.000000,0.097645,0.000000,117.000000,117.000000,0.000000,7.000000,0.000000,0.000000:
// measure 0
0000
0000
0000
0000
,  // measure 1
0000
0000
0000
0000
,  // measure 2
0000
0000
0000
0000
,  // measure 3
0000
0000
0000
0000
,  // measure 4
1000
0001
1000
0001
,  // measure 5
1000
0001
1000
0001
,  // measure 6
0010
0010
0010
0100
,  // measure 7
0100
0100
0020
0000
,  // measure 8
0000
0000
0030
0000
,  // measure 9
0010
0000
0100
0000
,  // measure 10
1000
0000
0100
0000
,  // measure 11
0001
0010
1000
0000
,  // measure 12
0001
0000
0010
0000
,  // measure 13
0100
0000
1000
0000
,  // measure 14
0010
0000
0100
0000
,  // measure 15
1000
0000
0100
0000
,  // measure 16
0010
0000
0100
0000
,  // measure 17
0010
0000
1000
0000
,  // measure 18
0002
0000
0003
0000
,  // measure 19
0100
0000
0010
0000
,  // measure 20
0020
0000
0030
0000
,  // measure 21
0100
0000
0010
0000
,  // measure 22
1000
0000
0010
0000
,  // measure 23
0002
0000
0003
0010
,  // measure 24
0000
1000
0010
0100
,  // measure 25
0100
0010
1000
1000
,  // measure 26
0001
0001
1000
1000
,  // measure 27
0001
0001
0001
0100
,  // measure 28
0100
0100
0000
0100
,  // measure 29
0100
0100
0100
0000
,  // measure 30
0010
1000
0100
0000
,  // measure 31
0002
0000
0003
2000
,  // measure 32
0000
3000
0000
0000
,  // measure 33
0100
0100
0100
0100
,  // measure 34
0010
0010
0010
0010
,  // measure 35
0100
0100
0100
1000
,  // measure 36
1000
1000
0100
0100
,  // measure 37
0100
0100
0100
0001
,  // measure 38
0001
0001
0001
0100
,  // measure 39
0100
0100
0100
0000
,  // measure 40
1000
1000
0100
0100
,  // measure 41
0001
0010
0100
0000
,  // measure 42
1000
1000
0100
0001
,  // measure 43
0010
0100
1000
0000
,  // measure 44
0001
0000
0001
0000
,  // measure 45
0100
0000
1000
0000
,  // measure 46
0002
0000
0000
0000
,  // measure 47
0000
0003
0001
0000
;

//---------------dance-single - ----------------
#NOTES:
     dance-single:
     :
     Beginner:
     3:
     0.163406,0.231908,0.167392,0.000000,0.000000,82.000000,70.000000,12.000000,0.000000,0.000000,0.000000,0.163406,0.231908,0.167392,0.000000,0.000000,82.000000,70.000000,12.000000,0.000000,0.000000,0.000000:
0000
0000
0000
0000
,
0000
0000
0000
0000
,
0000
0000
0000
0000
,
0000
0000
0000
0000
,
0000
0000
0000
0000
,
0000
0000
0000
0000
,
0010
0000
0010
0000
,
0010
0000
0010
0000
,
0010
0000
1000
0000
,
0010
0000
0100
0000
,
0001
0000
0010
0000
,
0100
0000
0000
0000
,
1000
0000
0100
0000
,
0010
0000
0001
0000
,
0100
0000
1000
0000
,
0010
0000
0000
0000
,
0100
0000
0001
0000
,
1001
0000
0000
0000
,
0010
0000
0001
0000
,
1001
0000
0000
0000
,
0010
0000
1000
0000
,
0100
0000
0010
0000
,
0100
0000
0001
0000
,
1001
0000
0000
0000
,
0001
0000
0100
0000
,
1000
0000
0110
0000
,
0001
0000
1000
0000
,
0010
0000
0110
0000
,
1000
0000
0001
0000
,
0100
0000
0110
0000
,
0000
0000
0001
0000
,
0100
0000
1000
0000
,
0010
0000
0100
0000
,
0001
0000
0110
0000
,
1000
0000
0010
0000
,
0100
0000
0110
0000
,
0001
0000
1000
0000
,
0010
0000
0110
0000
,
0000
0000
0001
0000
,
0010
0000
0100
0000
,
0000
0000
0010
0000
,
1000
0000
0100
0000
,
0000
0000
0100
0000
,
0001
0000
1000
0000
,
1001
0000
0000
0000
,
0000
0000
0000
0000
,
1001
0000
0000
0000
,
0000
0000
1001
0000
;

//---------------dance-single - ----------------
#NOTES:
     dance-single:
     :
     Medium:
     8:
     0.352719,0.496945,0.432429,0.027899,0.000000,177.000000,146.000000,31.000000,2.000000,0.000000,0.000000,0.352719,0.496945,0.432429,0.027899,0.000000,177.000000,146.000000,31.000000,2.000000,0.000000,0.000000:
0000
0000
0000
0000
,
0000
0000
0000
0000
,
0000
0000
0000
0000
,
0000
0000
0000
0000
,
0000
0000
0000
0000
,
0000
0000
0000
0000
,
0010
0010
0010
0010
,
0010
0010
0010
0010
,
0100
0001
0100
1000
,
0100
0001
0100
1000
,
0010
0100
0001
1000
,
0001
1001
0011
0011
,
0001
0100
0001
0001
,
0100
1000
0010
0100
,
0001
0010
0100
1000
,
1000
0101
0011
0011
,
0010
0100
1000
0010
,
1100
0000
0000
0000
,
0001
0100
1000
0010
,
1010
0000
0000
0000
,
0001
0100
1000
0010
,
0100
0001
0010
0100
,
0011
0011
1100
1100
,
0010
0001
0100
0001
,
1001
1001
0100
0100
,
0010
1000
1001
0000
,
1001
1001
0001
0100
,
1000
0010
1001
0000
,
1001
1001
0001
0100
,
1000
0010
1001
0000
,
0000
0000
0001
0000
1000
0001
0000
0010
,
0000
0100
0000
1000
0000
0000
0000
0000
,
1001
1001
0001
0100
,
1000
0010
1001
0000
,
1001
1001
0100
0001
,
0010
0100
1000
0000
,
1001
1001
0001
0100
,
1000
0010
1000
0000
,
0000
0000
0001
0000
1000
0001
0000
0010
,
0000
0100
0000
1000
0000
0000
0000
0000
,
0000
0000
0010
0000
0100
0001
0000
1000
,
0000
0100
0000
0010
0000
0000
0000
0000
,
0000
0000
0001
0000
0100
1000
0000
0010
,
0000
0100
0000
0001
0000
0000
0000
0000
,
1001
0000
0001
1000
0000
1000
0001
0000
,
0001
1000
0000
0100
0010
1000
0001
1000
,
2002
0000
0000
0000
,
0000
3003
1001
0000
;

//---------------dance-single - ----------------
#NOTES:
     dance-single:
     :
     Hard:
     12:
     0.438408,0.563204,0.292936,0.027899,0.000000,220.000000,199.000000,21.000000,2.000000,0.000000,0.000000,0.438408,0.563204,0.292936,0.027899,0.000000,220.000000,199.000000,21.000000,2.000000,0.000000,0.000000:
0000
0000
0000
0000
,
0000
0000
0000
0000
,
0000
0000
0000
0000
,
0000
0000
0000
0000
,
0000
0000
0000
0000
,
0000
0000
0000
0000
,
0010
0100
0010
0100
0010
0100
0010
0100
,
0010
0100
0010
0100
0010
0100
0010
0100
,
0001
1000
0100
1000
0010
1000
0001
1000
,
0000
0100
0000
0010
0000
0000
0001
0100
,
1000
0010
0000
0100
0000
0001
0000
0011
,
0000
0000
0100
1000
0010
1000
0100
0001
,
0010
0100
1000
0010
0100
0001
0000
1000
,
0000
0100
0000
1001
0000
0000
0010
0100
,
1000
0001
0000
1000
0000
0010
0000
1001
,
0000
1000
0100
0010
0001
1000
0100
0010
,
1000
0001
0000
1000
0000
0100
0000
0011
,
0000
0000
0001
0010
0100
1000
0000
0001
,
0100
1000
0000
0010
0000
0100
0000
1001
,
0000
0100
0001
0010
0100
1000
0000
0100
,
0010
0001
0000
0010
0000
0000
0010
0000
,
0100
0000
0001
1001
0000
0000
0100
0000
,
0001
1000
0001
1000
0000
0000
0001
1001
,
0000
0000
0001
0000
1000
0000
0001
1000
,
1010
0000
0101
0000
0001
0100
1000
0010
,
0100
0001
0000
0100
0000
0000
0000
0000
,
0011
0000
1001
0000
0010
0100
1000
0010
,
0100
0001
0000
1000
0000
0000
0001
0100
,
1010
0000
0101
0000
0001
0100
1000
0010
,
0100
0001
0000
0010
0000
0000
0000
0000
,
0000
0000
0001
0100
1000
0010
0000
1000
,
0000
0100
0000
0001
0000
0000
0000
0000
,
0011
0000
0011
0000
0001
0010
0001
0010
,
0100
1000
0000
0010
0000
0000
0000
0000
,
0011
0000
0011
0000
0010
0100
0010
0100
,
1000
0001
1000
0100
0000
0000
0000
0000
,
1001
0000
1001
0000
0100
0010
0100
0001
,
1000
0010
0000
0001
0000
0000
0000
0000
,
0000
0000
0010
1000
0100
0010
0000
0001
,
0000
0100
0000
1000
0000
0000
0000
0000
,
0000
0000
0001
0000
0100
0010
0000
1000
,
0000
0100
0000
0010
0000
0000
0000
0000
,
0000
0000
0001
0010
0100
0010
0000
1000
,
0000
0001
0000
0100
0000
0000
0000
0000
,
1000
0000
0001
0100
0000
0010
1000
0000
,
0100
0010
0000
0001
1000
0100
0010
0100
,
2002
0000
0000
0000
,
0000
3003
1001
0000
;
