#TITLE:Hey Ya!;
#SUBTITLE:;
#ARTIST:Andre 3000;
#TITLETRANSLIT:;
#SUBTITLETRANSLIT:;
#ARTISTTRANSLIT:;
#GENRE:;
#CREDIT:;
#BANNER:[Mozata] Hey Ya!.png;
#BACKGROUND:[Mozata] Hey Ya!-bg.png;
#LYRICSPATH:;
#CDTITLE:;
#MUSIC:[Mozata] Hey Ya!.ogg;
#OFFSET:0.000000;
#SAMPLESTART:34.716000;
#SAMPLELENGTH:12.000000;
#SELECTABLE:YES;
#BPMS:0.000000=159.000000
,136.000000=158.699997
,156.000000=158.600006
,168.000000=159.250000
;
#STOPS:
;
#BGCHANGES:;
#KEYSOUNDS:;
#ATTACKS:;

//---------------dance-single - ----------------
#NOTES:
     dance-single:
     :
     Beginner:
     2:
     0.130038,0.276049,0.009894,0.000000,0.000000,92.000000,91.000000,1.000000,0.000000,0.000000,0.000000,0.130038,0.276049,0.009894,0.000000,0.000000,92.000000,91.000000,1.000000,0.000000,0.000000,0.000000:
0000
0000
0000
0000
,
0010
0000
0000
0000
,
0100
0000
0000
0000
,
0010
0000
0000
0000
,
0100
0000
0100
0000
,
0000
0000
0000
0000
,
0000
0000
1000
0000
,
0000
0000
0001
0000
,
0000
0000
1000
0000
,
0000
0000
0001
0000
,
0001
0000
0000
0000
,
0000
0000
0000
0000
,
0100
0000
0000
0000
,
0001
0000
0000
0000
,
0100
0000
0000
0000
,
0001
0000
0001
0000
,
0000
0000
0000
0000
,
0000
0000
0010
0000
,
0000
0000
1000
0000
,
0000
0000
0010
0000
,
0000
0000
1000
0000
,
1000
0000
0000
0000
,
0000
0000
0000
0000
,
1000
0000
1000
0000
,
0001
0000
0000
0000
,
0001
0000
0001
0000
,
0010
0000
0100
0000
,
0000
0000
0100
0000
,
0000
0000
0001
0000
,
0001
0000
0010
0000
,
0000
0000
0100
0000
,
0100
0000
1000
0000
,
1000
0000
0000
0000
,
0010
0000
0000
0000
,
1001
0000
0000
0000
,
0100
0000
0000
0000
,
0100
0000
0000
0000
,
0100
0000
0000
0000
,
0000
0000
0010
0010
,
0010
0010
0010
0010
,
0010
0010
0010
0010
,
0010
0010
0010
0010
,
0010
0000
0001
0000
,
1000
0000
0001
0000
,
0100
0000
0001
0000
,
0010
0000
0100
0000
,
1000
0000
0100
0000
,
1000
0000
0100
0000
,
0010
0000
0100
0000
,
1000
0000
0001
0000
,
1000
0000
0001
0000
,
0100
0000
0010
0000
,
1000
0000
0010
0000
,
0010
0000
0001
0000
,
0100
0000
0000
0000
,
0100
0000
0100
0000
,
0001
0000
0010
0000
,
0000
0000
0010
0000
,
0000
0000
0010
0000
,
1000
0000
0100
0000
,
0000
0000
0100
0000
,
0100
0000
1000
0000
,
0010
0000
0000
0000
;

//---------------dance-single - ----------------
#NOTES:
     dance-single:
     :
     Easy:
     5:
     0.185163,0.254900,0.000000,0.049471,0.000000,131.000000,131.000000,0.000000,5.000000,0.000000,0.000000,0.185163,0.254900,0.000000,0.049471,0.000000,131.000000,131.000000,0.000000,5.000000,0.000000,0.000000:
0000
0000
0000
0000
,
0010
0010
0010
0000
,
0100
0100
0100
0000
,
0100
0100
0100
0000
,
0010
0010
0000
1000
,
0000
0010
0000
0001
,
0001
0001
0000
1000
,
1000
0000
0001
0001
,
0001
0000
0001
0001
,
0001
0000
1000
1000
,
1000
0010
0010
0010
,
0000
1000
1000
1000
,
0100
0100
0100
0000
,
0001
0001
0001
0000
,
0100
0100
0100
0000
,
1000
1000
1000
0000
,
0010
0010
0000
0010
,
0010
0010
0100
0100
,
0100
0000
1000
1000
,
1000
0000
0100
0100
,
0100
0000
1000
1000
,
1000
0000
0010
0010
,
0000
1000
1000
1000
,
0000
0001
0001
0010
,
0020
0000
0000
0030
,
0000
0000
0010
0001
,
0010
0100
1000
0000
,
0010
0000
1000
0000
,
0010
0000
0100
0100
,
0100
0000
2000
0000
,
0000
3000
0000
0000
,
1000
0000
0100
0000
,
2000
0000
0000
3000
,
0000
1000
1000
1000
,
0000
0000
0000
0010
,
0000
0000
0000
1000
,
0000
0000
0000
0100
,
0000
0000
0010
0000
,
0000
0001
0001
0001
,
0001
0001
0001
0001
,
0001
0001
0001
0001
,
0001
0001
0001
0001
,
0001
0000
0000
0010
,
0000
0000
0001
0000
,
0000
0001
0000
0000
,
0100
0000
0000
0010
,
0000
0000
1000
0000
,
0000
1000
0000
0000
,
0010
0000
0000
0100
,
0000
0000
1000
0000
,
0000
0100
0000
0010
,
0000
0001
0000
1000
,
0000
0100
0000
0001
,
0000
1000
0000
0010
,
0020
0000
0000
0030
,
0000
0000
0010
0000
,
1000
0000
0200
0000
,
0000
0300
0000
0000
;
