#TITLE:hey arnold op;
#SUBTITLE:;
#ARTIST:Nickelodeon;
#TITLETRANSLIT:;
#SUBTITLETRANSLIT:;
#ARTISTTRANSLIT:;
#GENRE:;
#CREDIT:;
#BANNER:bn.jpg;
#BACKGROUND:bg.jpg;
#LYRICSPATH:;
#CDTITLE:shadow-cdtitle.png;
#MUSIC:Hey Arnold! Opening Theme Song.mp3;
#OFFSET:-0.600000;
#SAMPLESTART:28.097662;
#SAMPLELENGTH:12.000000;
#SELECTABLE:YES;
#BPMS:0.000000=218.209000
,2.000000=218.190994
,3.000000=218.209000
,4.000000=218.190994
,5.000000=218.209000
,6.000000=218.190994
,7.000000=218.209000
,8.000000=218.190994
,9.000000=218.209000
,10.000000=218.190994
,11.000000=218.209000
,12.000000=218.190994
,13.000000=218.209000
,14.000000=218.190994
,15.000000=218.209000
,16.000000=218.190994
,17.000000=218.209000
,18.000000=218.190994
,19.000000=218.209000
,20.000000=218.190994
,21.000000=218.209000
,22.000000=218.190994
,23.000000=218.209000
,24.000000=218.190994
,25.000000=218.209000
,26.000000=218.190994
,27.000000=218.209000
,28.000000=218.190994
,29.000000=218.209000
,30.000000=218.190994
,31.000000=218.209000
,32.000000=218.190994
,33.000000=218.209000
,34.000000=218.190994
,35.000000=218.209000
,36.000000=218.190994
,37.000000=218.209000
,38.000000=218.190994
,39.000000=218.209000
,40.000000=218.190994
,41.000000=218.209000
,42.000000=218.190994
,43.000000=218.209000
,44.000000=218.190994
,45.000000=218.209000
,46.000000=218.190994
,47.000000=218.209000
,48.000000=218.190994
,49.000000=218.209000
,51.000000=218.190994
,52.000000=218.209000
,53.000000=218.190994
,54.000000=218.209000
,55.000000=218.190994
,56.000000=218.209000
,57.000000=218.190994
,58.000000=218.209000
,59.000000=218.190994
,60.000000=218.209000
,61.000000=218.190994
,62.000000=218.209000
,63.000000=218.190994
,64.000000=218.209000
,65.000000=218.190994
,66.000000=218.209000
,67.000000=218.190994
,68.000000=218.209000
,69.000000=218.190994
,70.000000=218.209000
,71.000000=218.190994
,72.000000=218.209000
,73.000000=218.190994
,74.000000=218.209000
,75.000000=218.190994
,76.000000=218.209000
,77.000000=218.190994
,78.000000=218.209000
,79.000000=218.190994
,80.000000=218.209000
,81.000000=218.190994
,82.000000=218.209000
,83.000000=218.190994
,84.000000=218.209000
,85.000000=218.190994
,86.000000=218.209000
,87.000000=218.190994
,88.000000=218.209000
,89.000000=218.190994
,90.000000=218.209000
,91.000000=218.190994
,92.000000=218.209000
,93.000000=218.190994
,94.000000=218.209000
,95.000000=218.190994
,96.000000=218.209000
,97.000000=218.190994
,98.000000=218.209000
,99.000000=218.190994
,100.000000=218.209000
,102.000000=218.190994
,103.000000=218.209000
,104.000000=218.190994
,105.000000=218.209000
,106.000000=218.190994
,107.000000=218.209000
,108.000000=218.190994
,109.000000=218.209000
,110.000000=218.190994
,111.000000=218.209000
,112.000000=218.190994
,113.000000=218.209000
,114.000000=218.190994
,115.000000=218.209000
,116.000000=218.190994
,117.000000=218.209000
,118.000000=218.190994
,119.000000=218.209000
,120.000000=218.190994
,121.000000=218.209000
,122.000000=218.190994
,123.000000=218.209000
,124.000000=218.190994
,125.000000=218.209000
,126.000000=218.190994
,127.000000=218.209000
,128.000000=218.190994
,129.000000=218.209000
,130.000000=218.190994
,131.000000=218.209000
,132.000000=218.190994
,133.000000=218.209000
,134.000000=218.190994
,135.000000=218.209000
,136.000000=218.190994
,137.000000=218.209000
,138.000000=218.190994
,139.000000=218.209000
,140.000000=218.190994
,141.000000=218.209000
,142.000000=218.190994
,143.000000=218.209000
,144.000000=218.190994
,145.000000=218.209000
,146.000000=218.190994
,147.000000=218.209000
,148.000000=218.190994
,149.000000=218.209000
,151.000000=218.190994
,152.000000=218.209000
,153.000000=218.190994
,154.000000=218.209000
,155.000000=218.190994
,156.000000=218.209000
,157.000000=218.190994
,158.000000=218.209000
,159.000000=218.190994
,160.000000=218.209000
,161.000000=218.190994
,162.000000=218.209000
,163.000000=218.190994
,164.000000=218.209000
,165.000000=218.190994
,166.000000=218.209000
,167.000000=218.190994
,168.000000=218.209000
,169.000000=218.190994
,170.000000=218.209000
;
#STOPS:
;
#BGCHANGES:;
#KEYSOUNDS:;
#ATTACKS:;

//---------------dance-single - ----------------
#NOTES:
     dance-single:
     :
     Beginner:
     26:
     2.090914,2.621939,2.141912,0.713971,3.832343,697.000000,579.000000,102.000000,34.000000,12.000000,23.000000,2.090914,2.621939,2.141912,0.713971,3.832343,697.000000,579.000000,102.000000,34.000000,12.000000,23.000000:
1000
0100
0010
0001
0010
0100
1000
2100
,
3020
0131
1010
0110
1001
0110
1010
0101
,
1100
0010
0001
1000
0100
0010
0001
1000
0100
0010
0001
1000
0100
0010
0001
1000
0100
0010
0001
1000
0100
0010
0001
1000
,
0110
0000
0000
0000
0000
0000
0000
0000
0000
1001
0000
0000
0000
0000
0000
0000
0000
0000
0000
0000
0000
0000
0000
0000
0000
1100
0000
0000
0000
0000
0000
0000
0000
0000
0000
0000
0000
0000
0000
0000
0000
0011
0000
0000
0000
0000
0000
0000
0000
0000
0000
0000
0000
0000
0000
0000
0000
1100
0000
0000
0000
0000
0000
0000
,
0000
0011
0000
0000
0000
0000
0000
0000
2101
0000
0010
0000
3101
0000
0010
0000
1100
0000
0010
0000
1102
0000
0010
0000
1103
0000
0010
0000
0101
0000
1000
0000
,
0121
0000
0000
0000
0000
0000
0000
0000
1031
0000
0000
0000
0000
0000
0000
0000
0000
1100
0000
0000
0000
0000
0000
0000
0000
1010
0000
0000
0000
0000
0000
0000
0000
0110
0000
0000
0000
0000
0000
0000
0000
0101
0000
0000
0000
0000
0000
0000
0000
0110
0000
0000
0000
0000
0000
0000
0000
1010
0000
0000
0000
0000
0000
0000
,
0000
0101
0000
0000
0000
0000
0000
0000
0000
0000
0000
0000
0000
0000
0000
0000
0000
0000
0000
0000
0000
0000
0000
0000
0000
0000
0000
0000
0000
0000
0000
0000
0000
0000
0000
0000
0000
0000
0000
0000
0000
1000
0000
0000
0000
0000
0000
0000
0000
0000
0010
0000
0000
0000
0000
0000
0000
0000
0000
0000
0000
0000
0000
0000
,
0000
0000
0000
0000
0000
0000
0000
0000
0101
0000
0010
0000
0000
0000
0000
0000
1100
0000
0010
0000
0000
0000
0000
0000
0011
0000
0100
0000
0010
0000
0000
0100
,
0000
0000
0000
0000
1001
0000
0000
0000
000M
00M0
0M00
M000
000M
00M0
0M00
M000
0000
0000
0000
0000
0000
0000
0000
0000
0000
0000
0000
0000
0000
0000
0000
0000
0000
0000
0000
0000
0000
0000
0000
0000
0000
1000
0000
0000
0000
0000
0000
0000
0000
0000
0000
0000
0000
0000
0000
0000
0000
0000
0000
0000
0000
0000
0000
0000
,
1000
0100
0010
0001
0100
1000
0010
0001
,
0100
0000
0000
0000
1000
0100
0010
0001
1000
0100
0010
0001
1000
0100
0010
0001
1000
0100
0010
0001
1000
0100
0010
0001
1000
0100
0010
0001
1000
0100
0010
0001
,
1100
0110
0011
1100
0101
MM11
M11M
1100
,
0101
0011
0101
0000
0000
0000
1001
0110
,
0000
1001
0000
0011
0000
0011
1001
0000
,
0000
0000
0000
0000
,
1000
0000
0100
0000
0010
0000
0001
0000
0000
0000
0000
0000
1000
0000
0100
0000
0010
0000
0001
0000
0000
0000
0000
0000
0000
0000
0000
0001
0000
0000
0010
0000
0000
0100
0000
0000
1000
0000
0000
0001
0000
0000
0100
0000
0000
1000
0000
0000
0100
0000
0000
0010
0000
0000
0001
0000
0000
0000
0000
0000
0100
0000
0000
0010
0000
0000
0001
0000
0000
0010
0000
0000
1000
0000
0000
0100
0000
0000
0010
0000
0000
0001
0000
0000
0000
0000
0000
0000
0000
0000
0000
0000
0000
0000
0000
0000
,
1002
0103
0010
1000
0012
1003
0010
0100
1000
0010
0001
1000
0210
0301
1000
0100
,
0021
0000
0000
1030
0000
0000
0101
0000
0000
0100
0000
0000
1010
0000
0000
0100
0000
0000
0011
0000
0000
0100
0000
0000
1010
0000
0000
0010
0000
0000
1001
0000
0000
1000
0000
0000
0101
0000
0000
0010
0000
0000
0111
0000
1000
0000
0100
0000
,
0001
0010
0100
1000
0001
0100
1000
0010
0001
0110
1000
0001
0010
0100
1000
0001
0100
1000
0010
0001
1000
0100
0010
0001
,
1000
0000
0000
0000
0100
0000
0000
0000
0001
0000
0000
0000
0010
0000
0000
0000
0100
0000
0000
0000
1000
0000
0000
0000
0001
0000
0000
0000
0100
0000
0000
0000
1000
0000
0000
0000
0110
0000
0000
0000
0001
0000
0000
0000
1000
0000
0000
0000
0010
0000
0000
0000
1000
0000
0100
0000
0000
0010
0000
0000
0001
0000
0000
0100
0000
0000
1000
0000
0000
0010
0000
0000
0001
0000
0000
1000
0000
0000
0100
0000
0000
0010
0000
0000
0001
0000
0000
1000
0000
0000
0100
0000
0000
0010
0000
0000
,
0001
1000
0001
0100
0010
1000
0001
0100
1000
0110
0001
0100
1000
0001
0010
0100
1000
0001
0010
1000
0100
0001
0010
0100
,
1000
0000
0000
0000
0001
0000
0000
0000
0100
0000
0000
0000
0020
0000
0000
0000
1030
0000
0000
0000
0001
0000
0000
0000
0200
0000
0000
0000
1300
0000
0000
0000
0100
0000
0000
0000
0020
0000
0000
0000
0031
0000
0000
0000
1000
0000
0000
0000
0200
0000
0000
0000
0310
0000
0000
0000
0001
0000
0000
0000
2000
0000
0000
0000
3001
0000
0000
0000
0010
0000
0000
0000
0200
0000
0000
0000
1300
0000
0000
0000
0001
0000
0000
0000
0020
0000
0000
1000
0030
0000
0100
0000
0000
0001
0000
0000
,
0020
0000
0000
0100
0030
0000
1000
0000
0000
0001
0000
0000
0010
0000
0000
0100
0000
0000
1000
0000
0000
0001
0000
0000
0100
0000
0000
0010
0000
0000
0001
0000
0000
1000
0000
0000
0100
0000
0000
0010
0000
0000
0001
0000
0000
1000
0000
0000
0100
0000
0000
0010
0000
0000
0001
0000
0000
1000
0000
0000
0100
0000
0000
0001
0000
0000
0010
0000
0000
0100
0000
0000
1000
0000
0000
0001
0000
0000
0010
0000
0000
0100
0000
0000
1000
0000
0000
0001
0000
0000
0010
0000
0000
0100
0000
0000
,
1000
0100
0001
0010
0100
1000
0001
0100
1000
0010
0001
1000
0100
0010
0001
1000
0001
0010
0100
1000
0001
0100
1000
0001
,
0010
0000
0100
0000
1000
0000
0001
0000
0100
0000
0010
0000
0001
1000
0100
0010
0001
1000
0100
0010
0001
1000
0100
0001
0010
0100
1000
0001
0010
0100
1000
0000
0000
0000
0000
0000
0000
0000
0000
0000
0000
0000
0000
0000
0000
0000
0000
0000
,
2100
3020
0131
1010
0110
1001
0110
1010
,
0101
0000
0000
1200
0010
0001
1300
0010
0100
1001
0100
0001
0010
0100
1000
0001
0100
1000
0100
0010
0001
1010
0100
0001
,
0010
0100
1000
0001
0100
1000
0010
0001
0100
1010
0001
0100
1000
0001
0010
0100
1000
0001
0100
1000
0100
0011
1000
0100
,
0001
0010
0100
1000
0001
0100
1000
0010
0001
0110
1000
0001
0100
1000
0010
0001
1000
0100
0010
0001
1000
0110
0001
1000
,
0100
0001
0010
0100
1000
0001
0010
0100
1000
0011
0100
1000
0001
0010
0100
1000
0001
0100
1000
0001
1000
0110
0001
0100
,
1000
0010
0001
1000
0100
0010
0001
0100
1000
0011
1000
0100
0001
0010
0100
1000
0001
0100
1000
0010
0001
0110
1000
0001
,
0100
0000
0000
0000
1000
0000
0000
0000
0010
0000
0000
0000
0001
0000
0000
0000
0100
0000
0000
0000
1000
0000
0000
0000
0001
0000
0000
0000
0010
0000
0000
0000
0100
0000
0000
0000
1010
0000
0000
0000
0100
0000
0000
0000
0001
0000
0000
0000
0010
0000
0000
0000
0100
0000
0000
0000
1000
0000
0000
0000
0001
0000
0000
0000
0100
0000
0000
0000
1000
0000
0000
0000
0100
0000
0000
0000
0010
0000
0000
0000
0001
0000
0000
0120
0000
0000
0000
0000
0000
0030
0000
0000
0000
0000
0000
2001
,
0000
0000
0000
3000
0000
0000
0000
0000
0000
0000
0000
0000
0000
0000
0000
0000
0000
0210
0000
0000
0000
0300
0000
0000
0000
0000
0000
0000
0000
0000
0000
0000
0000
0000
0000
0012
0000
0000
0000
0000
0000
0000
0000
0000
0000
0000
0000
0000
0000
0000
0000
0000
0000
0000
0000
0000
0000
0000
0000
0000
0000
0000
0000
0000
0000
0000
0000
0000
0000
0000
0000
0000
0000
0000
0000
0000
0000
0000
0000
0000
0000
0000
0000
0000
0000
0000
0000
0000
0000
0000
0000
0000
0000
0000
0000
0000
,
0000
0000
0000
0000
0000
0000
0000
0000
0000
0000
0000
0000
0000
0000
0000
0000
0000
2000
0000
0000
0000
0000
0000
0000
0000
0000
0000
0000
0000
0000
0000
0000
0000
0000
0000
0000
0000
0000
0000
0000
0000
0000
0000
0000
0000
0000
0000
0000
0000
0000
0000
0000
0000
0000
0000
0000
0000
0000
0000
0000
0000
0000
0000
0000
0000
0000
0000
0000
0000
0000
0000
0000
0000
0000
0000
0000
0000
0000
0000
0000
0000
0000
0000
0000
0000
0200
0000
0000
0000
0000
0000
0000
0000
0000
0000
0000
,
0000
0000
0000
0000
0000
0000
0000
0000
0000
0000
0000
0000
0000
0000
0000
0000
0000
0000
0000
0000
0000
0000
0000
0000
0000
0000
0000
0000
0000
0000
0000
0000
0000
0000
0000
0000
0000
0000
0000
0000
0000
0000
0000
0000
0000
0000
0000
0000
0000
0000
0000
3000
0000
0000
0000
0000
0000
0000
0000
0000
0000
0000
0000
0000
0000
0000
0000
0000
0000
0000
0000
0000
0000
0000
0000
0000
0000
0000
0000
0000
0000
0000
0000
0000
0000
0000
0000
0000
0000
0000
0000
0000
0000
0000
0000
0000
0003
0000
0000
0000
0000
0000
0000
0000
0000
0000
0000
0000
0000
0000
0000
0000
0000
0000
0000
0000
0000
0000
0000
0000
0000
0000
0000
0000
0000
0000
0000
0000
0000
0000
0000
0000
0000
0000
0000
0000
0000
0000
0000
0000
0000
0000
0000
0000
0300
0000
0000
0000
0000
0000
0000
0000
0000
0000
0000
0000
0000
0000
0000
0000
0000
0000
0000
0000
0000
0000
0000
0000
0000
0000
0000
0000
0000
0000
0000
0000
0000
0000
0010
0000
0000
0000
0000
0000
0000
0000
0000
0000
0000
0000
0001
0000
,
0000
0000
0000
0000
0000
0010
0000
0000
0000
0000
0000
0000
0000
0000
0000
0000
0000
0100
0000
0000
0000
0000
0000
0000
0000
0000
0000
0000
0000
2222
0000
0000
0000
0000
0000
0000
0000
0000
0000
0000
0000
0000
0000
0000
0000
0000
0000
0000
0000
0000
0000
0000
0000
0000
0000
0000
0000
0000
0000
0000
0000
0000
0000
0000
0000
0000
0000
0000
0000
0000
0000
0000
0000
0000
0000
0000
0000
0000
0000
0000
0000
0000
0000
0000
0000
0000
0000
0000
0000
0000
0000
0000
0000
0000
0000
0000
,
0000
0000
0000
0000
0000
0000
0000
0000
0000
0000
0000
0000
0000
0000
0000
0000
0000
0000
0000
0000
0000
0000
0000
0000
3303
0000
0000
0000
0000
0000
0000
1101
0000
0000
0000
0000
0000
0000
0000
0000
0000
0000
0000
0000
0000
0000
0000
1101
0000
0000
0000
0000
0000
0000
0000
0000
0000
0000
0000
0000
0000
0000
0000
0000
0000
0000
0000
1101
0000
0000
0000
0000
0000
0000
0000
0000
0000
0000
0000
0000
0000
0000
0000
0000
0000
1101
0000
0000
0000
0000
0000
0000
0000
0000
0000
0000
,
0030
0000
0000
0000
0000
0000
0000
0000
0000
0000
0000
1101
0000
0000
0000
0000
0000
0000
0000
0000
0000
0000
0000
0000
0000
0000
0000
0000
0000
0000
0000
0000
0000
0000
0000
0000
0000
0000
0000
0000
0000
0000
1000
0000
0000
0000
0000
0000
0100
0000
0000
0000
0000
0000
0010
0000
0000
0000
0000
0000
0001
0000
0000
0000
0000
0000
0010
0000
0000
0000
0000
0000
0100
0000
0000
0000
0000
0000
1000
0000
0000
0000
0000
0000
0111
0000
0000
0000
0000
0000
1000
0000
0000
0000
0000
0000
,
0100
0001
0010
1000
0111
1000
0001
1000
0111
1000
0100
0010
0001
0100
1000
0010
,
1101
0000
0000
0010
0000
0000
0100
0000
0000
1000
0000
0000
0111
0000
0000
1000
0000
0000
0101
0000
0000
0000
0000
0000
0010
0000
0000
0100
0000
0000
1000
0000
0000
0000
0000
0000
2000
0200
0020
0002
0000
0000
0000
0000
3000
0300
0030
0003
,
0000
0000
0000
0000
0000
0000
0000
0000
0000
0000
0000
0000
0000
0010
0100
1001
;

//---------------dance-single - ----------------
#NOTES:
     dance-single:
     :
     Easy:
     26:
     0.161993,0.392159,0.000000,0.230991,0.000000,54.000000,54.000000,0.000000,11.000000,0.000000,0.000000,0.161993,0.392159,0.000000,0.230991,0.000000,54.000000,54.000000,0.000000,11.000000,0.000000,0.000000:
// measure 0
2000
0000
0000
3000
,  // measure 1
0010
0010
0001
0010
,  // measure 2
1000
0001
0100
0001
,  // measure 3
0100
0000
0100
0010
,  // measure 4
0000
0100
0200
0000
,  // measure 5
0000
0300
0000
0000
,  // measure 6
0000
0000
1000
0010
,  // measure 7
0000
0001
1000
0001
,  // measure 8
0000
0000
0000
0000
,  // measure 9
1000
0010
0100
0010
,  // measure 10
0000
0000
0000
0000
,  // measure 11
0100
0000
0001
0010
,  // measure 12
0001
0100
0000
0001
,  // measure 13
0000
0000
0000
1000
,  // measure 14
0000
0000
0000
0000
,  // measure 15
0000
0000
0000
0002
,  // measure 16
0000
0000
0000
0000
,  // measure 17
0003
0000
0010
0000
,  // measure 18
0000
0000
0100
0000
,  // measure 19
0000
0000
1000
0000
,  // measure 20
0000
0000
0001
0000
,  // measure 21
0000
0000
0200
0000
,  // measure 22
0300
0000
2000
0000
,  // measure 23
3000
0000
0000
0000
,  // measure 24
0000
0010
0000
0000
,  // measure 25
0000
0000
0000
0000
,  // measure 26
0100
0000
0000
0100
,  // measure 27
0000
0000
0001
0000
,  // measure 28
0001
0000
0002
0000
,  // measure 29
0000
0000
0000
0000
,  // measure 30
0000
0000
0000
0000
,  // measure 31
0003
0000
0000
0000
,  // measure 32
0000
0010
0020
0000
,  // measure 33
0000
0000
0000
0000
,  // measure 34
0000
0030
0000
0000
0000
0000
0000
0000
,  // measure 35
0000
0000
2000
0000
,  // measure 36
0000
3000
1000
0000
,  // measure 37
0200
0300
0000
0200
,  // measure 38
0300
0100
0001
0020
,  // measure 39
0000
0000
0000
0030
,  // measure 40
0100
0000
0000
0000
,  // measure 41
0000
0000
0100
0000
;
