#VERSION:0.83;
#TITLE:The Hex Girls;
#SUBTITLE:;
#ARTIST:Dancing Monkeys Project;
#TITLETRANSLIT:;
#SUBTITLETRANSLIT:;
#ARTISTTRANSLIT:;
#GENRE:;
#ORIGIN:;
#CREDIT:Gorilla v1.1.3 (Dancing Monkeys v1.06);
#BANNER:maxresdefault.png;
#BACKGROUND:A-2688648-1519683394-3677.png;
#PREVIEWVID:;
#JACKET:;
#CDIMAGE:;
#DISCIMAGE:;
#LYRICSPATH:;
#CDTITLE:;
#MUSIC:The Hex Girls - Hex Girl.mp3;
#OFFSET:-0.732771;
#SAMPLESTART:47.609856;
#SAMPLELENGTH:12.000000;
#SELECTABLE:YES;
#BPMS:0.000=127.994;
#STOPS:;
#DELAYS:;
#WARPS:;
#TIMESIGNATURES:0.000=4=4;
#TICKCOUNTS:0.000=4;
#COMBOS:0.000=1;
#SPEEDS:0.000=1.000=0.000=0;
#SCROLLS:0.000=1.000;
#FAKES:;
#LABELS:0.000=Song Start;
#BGCHANGES:;
#KEYSOUNDS:;
#ATTACKS:
;

//---------------dance-single - Basic----------------
#NOTEDATA:;
#CHARTNAME:Basic;
#STEPSTYPE:dance-single;
#DESCRIPTION:Basic;
#CHARTSTYLE:;
#DIFFICULTY:Easy;
#METER:4;
#RADARVALUES:0.143686,0.126934,0.000000,0.000000,0.000000,104.000000,104.000000,0.000000,0.000000,0.000000,0.000000,0.000000,0.000000,0.000000,0.143686,0.126934,0.000000,0.000000,0.000000,104.000000,104.000000,0.000000,0.000000,0.000000,0.000000,0.000000,0.000000,0.000000;
#CREDIT:Basic;
#NOTES:
// measure 0
0001
0000
0000
1000
,  // measure 1
0000
0100
0000
0000
,  // measure 2
0001
0000
0000
0100
,  // measure 3
0000
1000
0000
0010
,  // measure 4
0000
0001
0000
0100
,  // measure 5
0000
0010
0000
0100
,  // measure 6
0000
0001
0000
1000
,  // measure 7
0000
1000
0000
0100
,  // measure 8
0000
0001
0000
1000
,  // measure 9
0000
0100
0000
0001
,  // measure 10
0000
1000
0000
0010
,  // measure 11
0000
1000
0000
0010
,  // measure 12
0000
0100
0000
0001
,  // measure 13
0000
0100
0000
0010
,  // measure 14
0000
0001
0000
1000
,  // measure 15
0000
0100
0000
0001
,  // measure 16
0000
0100
0000
0010
,  // measure 17
0000
0001
0000
0010
,  // measure 18
0000
1000
0000
0001
,  // measure 19
0000
0010
0000
0100
,  // measure 20
0000
0010
0000
1000
,  // measure 21
0000
0100
0000
0001
,  // measure 22
0000
1000
0000
0010
,  // measure 23
0000
0100
0000
1000
,  // measure 24
0000
0100
0000
1000
,  // measure 25
0000
0010
0000
1000
,  // measure 26
0000
0001
0000
0100
,  // measure 27
0000
0100
0000
0001
,  // measure 28
0000
1000
0000
0100
,  // measure 29
0000
0001
0000
0010
,  // measure 30
0000
0001
0000
0010
,  // measure 31
0000
0001
0000
0010
,  // measure 32
0000
0100
0000
0010
,  // measure 33
0000
0001
0000
0010
,  // measure 34
0000
0001
0000
0010
,  // measure 35
0000
1000
0000
0001
,  // measure 36
0000
0010
0000
0001
,  // measure 37
0000
0010
0000
0100
,  // measure 38
0000
1000
0000
0100
,  // measure 39
0000
0010
0000
0100
,  // measure 40
0000
1000
0000
0010
,  // measure 41
0000
0001
0000
0000
,  // measure 42
0001
0000
0010
0000
,  // measure 43
1000
0000
0001
0000
,  // measure 44
1000
0000
0010
0000
,  // measure 45
1000
0000
0100
0000
,  // measure 46
1000
0000
0100
0000
,  // measure 47
1000
0000
0100
0000
,  // measure 48
1000
0000
0010
0000
,  // measure 49
1000
0000
0001
0000
,  // measure 50
1000
0000
0100
0000
,  // measure 51
1000
0000
0010
0000
,  // measure 52
0001
0000
0010
0000
;
