#VERSION:0.83;
#TITLE:Hellsing Ending 1 Mr Big - Shine HD 60fps;
#SUBTITLE:;
#ARTIST:Dancing Monkeys Project;
#TITLETRANSLIT:;
#SUBTITLETRANSLIT:;
#ARTISTTRANSLIT:;
#GENRE:;
#ORIGIN:;
#CREDIT:Gorilla v1.1.3 (Dancing Monkeys v1.06);
#BANNER:intro-1667856370.png;
#BACKGROUND:Hellsingcast.png;
#PREVIEWVID:;
#JACKET:;
#CDIMAGE:;
#DISCIMAGE:;
#LYRICSPATH:;
#CDTITLE:;
#MUSIC:Hellsing Ending 1 Mr Big - Shine HD 60fps.mp3;
#OFFSET:-0.681814;
#SAMPLESTART:52.348480;
#SAMPLELENGTH:12.000000;
#SELECTABLE:YES;
#BPMS:0.000=116.129;
#STOPS:;
#DELAYS:;
#WARPS:;
#TIMESIGNATURES:0.000=4=4;
#TICKCOUNTS:0.000=4;
#COMBOS:0.000=1;
#SPEEDS:0.000=1.000=0.000=0;
#SCROLLS:0.000=1.000;
#FAKES:;
#LABELS:0.000=Song Start;
#BGCHANGES:;
#KEYSOUNDS:;
#ATTACKS:
;

//---------------dance-single - Basic----------------
#NOTEDATA:;
#CHARTNAME:Basic;
#STEPSTYPE:dance-single;
#DESCRIPTION:Basic;
#CHARTSTYLE:;
#DIFFICULTY:Easy;
#METER:3;
#RADARVALUES:0.191233,0.197890,0.000000,0.132757,0.000000,121.000000,121.000000,0.000000,12.000000,0.000000,0.000000,0.000000,0.000000,0.000000,0.191233,0.197890,0.000000,0.132757,0.000000,121.000000,121.000000,0.000000,12.000000,0.000000,0.000000,0.000000,0.000000,0.000000;
#CREDIT:Basic;
#NOTES:
// measure 0
0000
0000
0001
0010
,  // measure 1
0001
0010
0100
1000
,  // measure 2
2000
3000
0200
0300
,  // measure 3
2000
3000
0020
0030
,  // measure 4
1000
0001
0100
0000
,  // measure 5
0001
0001
0100
0000
,  // measure 6
0001
0001
0010
0000
,  // measure 7
0001
0000
0010
0000
,  // measure 8
0001
1000
0000
0010
,  // measure 9
1000
0001
0100
0000
,  // measure 10
0001
1000
0100
0000
,  // measure 11
1000
0010
0000
0010
,  // measure 12
0001
1000
0000
0010
,  // measure 13
0001
0000
1000
0100
,  // measure 14
0001
0001
1000
1000
,  // measure 15
0001
0001
0100
0100
,  // measure 16
0001
0001
1000
0010
,  // measure 17
1000
0010
1000
0010
,  // measure 18
0001
0001
1000
1000
,  // measure 19
0001
0001
0100
0100
,  // measure 20
0001
1000
0200
0000
,  // measure 21
0000
0000
0000
0300
,  // measure 22
0010
0010
0020
0000
,  // measure 23
0030
0100
0100
0100
,  // measure 24
0100
0100
0200
0000
,  // measure 25
0300
1000
1000
1000
,  // measure 26
0001
0001
0100
0100
,  // measure 27
0001
0001
1000
1000
,  // measure 28
0001
0001
0020
0000
,  // measure 29
0030
1000
0100
0100
,  // measure 30
0100
0100
0020
0000
,  // measure 31
0030
0100
0010
0100
,  // measure 32
0001
1000
0200
0000
,  // measure 33
0300
1000
0100
1000
,  // measure 34
0001
0001
1000
0100
,  // measure 35
1000
0100
0010
0100
,  // measure 36
0001
1000
0200
0000
,  // measure 37
0300
0001
1000
1000
,  // measure 38
1000
1000
0200
0000
,  // measure 39
0000
0000
0000
0300
;

//---------------dance-single - Standard----------------
#NOTEDATA:;
#CHARTNAME:Standard;
#STEPSTYPE:dance-single;
#DESCRIPTION:Standard;
#CHARTSTYLE:;
#DIFFICULTY:Medium;
#METER:5;
#RADARVALUES:0.289220,0.302021,0.066378,0.000000,0.000000,183.000000,177.000000,6.000000,0.000000,0.000000,0.000000,0.000000,0.000000,0.000000,0.289220,0.302021,0.066378,0.000000,0.000000,183.000000,177.000000,6.000000,0.000000,0.000000,0.000000,0.000000,0.000000,0.000000;
#CREDIT:Standard;
#NOTES:
0000
0000
1000
0000
0001
0000
0010
0000
,
1000
0000
0001
0000
1000
0000
0000
0000
,
0001
0000
0100
0000
0010
0000
0000
0000
,
1000
0000
0010
0000
0100
0000
0000
0000
,
1000
0000
0100
0000
0010
0000
0001
0000
,
0001
0000
0001
0000
0010
0000
0100
0000
,
1000
0000
1000
0000
0010
0000
0100
0000
,
1000
0000
0001
0010
0001
0000
0000
0000
,
0001
0000
0100
0000
0001
0000
1000
0000
,
1000
0000
0100
0000
0010
0000
0001
0000
,
0001
0000
0100
0000
0010
0000
1000
0000
,
0001
0010
1000
0000
0010
0000
0010
0000
,
0001
0000
0010
0000
0001
0000
0100
0000
,
1000
0001
0000
0000
0010
0000
0001
0000
,
1000
0010
0010
0000
0001
0000
0001
0000
,
0001
0000
0001
0000
0010
0000
0100
0000
,
1000
0000
0100
0000
0010
0000
0001
0000
,
1000
0000
0001
0000
0100
0000
1000
0000
,
1000
0010
0010
0000
0001
0000
0001
0000
,
0001
0000
0001
0000
0010
0000
0100
0000
,
0001
0000
0010
0001
1000
0000
0001
0000
,
0011
0000
0010
0000
0001
0100
0100
0000
,
1000
0000
0100
0000
0110
0000
0010
0000
,
0011
0000
0010
0000
0001
0100
0100
0000
,
0001
0000
0100
0001
0001
0100
0010
0000
,
0101
0000
0010
0000
0100
0000
0001
0000
,
0011
0000
0010
0000
0001
0100
0100
0000
,
1000
0010
0010
0000
0001
0000
0001
0000
,
0001
0000
0010
0001
1000
0000
0001
0000
,
0011
0000
0010
0000
0001
0100
0100
0000
,
0001
0000
0100
0001
0001
0100
0010
0000
,
0001
0000
0100
0001
1000
0000
0100
1000
,
0001
0000
0010
0001
1000
0000
0001
0010
,
0001
1000
0010
0000
1000
0000
0010
0000
,
0001
0000
0001
0000
0100
0000
0001
1000
,
0001
0000
0100
0001
1000
0000
0100
1000
,
0001
0000
0010
0001
1000
0000
0001
0010
,
1000
0010
0010
0000
0001
0000
0001
0000
,
0001
0000
0100
0000
0010
0000
0000
0000
,
0001
0000
0000
0000
0000
0000
0000
0000
,
0000
0000
0000
0000
0000
0000
0000
0000
,
0000
0000
0000
0000
0000
0000
0000
0000
,
;

//---------------dance-single - Heavy----------------
#NOTEDATA:;
#CHARTNAME:Heavy;
#STEPSTYPE:dance-single;
#DESCRIPTION:Heavy;
#CHARTSTYLE:;
#DIFFICULTY:Hard;
#METER:6;
#RADARVALUES:0.339794,0.345167,0.077441,0.000000,0.000000,215.000000,208.000000,7.000000,0.000000,0.000000,0.000000,0.000000,0.000000,0.000000,0.339794,0.345167,0.077441,0.000000,0.000000,215.000000,208.000000,7.000000,0.000000,0.000000,0.000000,0.000000,0.000000,0.000000;
#CREDIT:Heavy;
#NOTES:
0000
0000
0000
0001
1000
0000
0100
0000
,
0001
0000
1000
0000
0001
0000
1000
0000
,
0001
0000
0010
0000
0001
0000
0001
0000
,
1000
0000
0010
0000
1000
0000
1000
0000
,
0001
0000
0100
0000
0010
0000
1000
0001
,
0001
0000
0001
0000
0010
0000
0100
1000
,
0001
0000
0001
0000
0010
0000
0100
1000
,
1000
0000
0010
1000
0100
0000
0000
0000
,
1000
0001
0100
0100
0000
0000
0001
0000
,
0001
0000
0100
0000
0010
0000
1000
0001
,
1000
0000
0100
0000
0010
0000
0001
1000
,
0001
0100
0001
0000
0100
0000
0100
0000
,
0001
0000
0010
0100
0010
0000
0100
0000
,
0001
0100
0000
0000
0010
0100
0010
0000
,
1000
0100
0100
1000
0100
0000
0100
0000
,
0001
0000
0001
0000
0010
0000
0100
1000
,
1000
0000
0010
0100
0001
0000
0100
0000
,
0001
0100
0010
0000
1000
0000
0001
0000
,
1000
0100
0100
1000
0100
0000
0100
0000
,
0001
0000
0001
0000
0010
0000
0100
1000
,
0001
0100
0001
0100
0010
0000
0100
0000
,
1100
0000
1000
0010
1000
0001
0001
0000
,
0001
0000
0000
0000
0011
0000
0100
0000
,
1100
0000
1000
0010
1000
0001
0001
0000
,
1000
0000
0010
1000
1000
0001
0100
0000
,
1001
0000
1000
0000
0100
0000
1000
0000
,
1100
0000
1000
0010
1000
0001
0001
0000
,
1000
0100
0100
1000
0100
0000
0100
0000
,
0001
0100
0001
0100
0010
0000
0100
0000
,
1100
0000
1000
0010
1000
0001
0001
0000
,
1000
0000
0010
1000
1000
0001
0100
0001
,
0001
0000
0100
0001
1000
0100
1000
0001
,
0001
0100
0001
0100
0010
0000
0100
0010
,
1000
0010
1000
0000
0100
0000
0010
0000
,
1100
0000
1000
0000
0010
0100
0001
0010
,
0001
0000
0100
0001
1000
0100
1000
0001
,
0001
0100
0001
0100
0010
0000
0100
0010
,
1000
0100
0100
1000
0100
0000
0100
0000
,
0001
0000
0010
0000
0001
0000
0001
0000
,
0001
0000
0000
0000
0000
0000
0000
0000
,
0000
0000
0000
0000
0000
0000
0000
0000
,
0000
0000
0000
0000
0000
0000
0000
0000
,
;
