#TITLE:Hell's Greatest Dad ;
#SUBTITLE:;
#ARTIST:Hazbin Hotel;
#TITLETRANSLIT:;
#SUBTITLETRANSLIT:;
#ARTISTTRANSLIT:;
#GENRE:;
#CREDIT:Gorilla v1.1.3 (Dancing Monkeys v1.06);
#BANNER:;
#BACKGROUND:;
#LYRICSPATH:;
#CDTITLE:;
#MUSIC:Hell's Greatest Dad Sing-Along Hazbin Hotel Prime Video.mp3;
#OFFSET:-1.302993;
#SAMPLESTART:51.318867;
#SAMPLELENGTH:12.000000;
#SELECTABLE:YES;
#BPMS:0.000000=119.961998
;
#STOPS:
;
#BGCHANGES:;
#KEYSOUNDS:;
#ATTACKS:;

//---------------dance-single - Basic----------------
#NOTES:
     dance-single:
     Basic:
     Easy:
     3:
     0.131874,0.199483,0.000000,0.019923,0.000000,139.000000,139.000000,0.000000,3.000000,0.000000,0.000000,0.131874,0.199483,0.000000,0.019923,0.000000,139.000000,139.000000,0.000000,3.000000,0.000000,0.000000:
// measure 0
0000
0000
0000
0001
,  // measure 1
0000
1000
0000
0100
,  // measure 2
0100
0001
0001
0010
,  // measure 3
0010
0010
0000
1000
,  // measure 4
0001
1000
0001
0010
,  // measure 5
0010
0001
0000
0100
,  // measure 6
0000
1000
1000
0100
,  // measure 7
0100
0100
0001
0001
,  // measure 8
0010
0010
1000
1000
,  // measure 9
0010
0010
0100
0100
,  // measure 10
0001
0001
0010
0010
,  // measure 11
0100
0100
0000
0001
,  // measure 12
0000
0001
0000
0010
,  // measure 13
0000
0100
0000
0001
,  // measure 14
0000
0010
0000
0001
,  // measure 15
0000
1000
0000
1000
,  // measure 16
0000
0010
0000
2000
,  // measure 17
0000
0000
0000
3000
,  // measure 18
0000
0001
0000
0010
,  // measure 19
0000
1000
0000
0010
,  // measure 20
0000
0001
0000
0010
,  // measure 21
0000
1000
0000
0100
,  // measure 22
0000
0001
0000
0010
,  // measure 23
0000
0001
0000
0100
,  // measure 24
0000
0001
0000
0010
,  // measure 25
0000
1000
0000
0010
,  // measure 26
0000
1000
0000
0100
,  // measure 27
0000
0100
0000
0001
,  // measure 28
0000
0100
0000
1000
,  // measure 29
0000
1000
0000
0100
,  // measure 30
0000
0100
0000
0001
,  // measure 31
0000
0001
0000
0010
,  // measure 32
0000
0001
0001
0000
,  // measure 33
2000
0000
3000
0010
,  // measure 34
0000
0001
0000
0100
,  // measure 35
0000
0001
0000
0010
,  // measure 36
0000
1000
0000
0010
,  // measure 37
0000
1000
0000
0000
,  // measure 38
0000
0000
0000
0000
,  // measure 39
0000
0000
0001
0000
,  // measure 40
1000
0000
0001
0000
,  // measure 41
0010
0000
0100
0000
,  // measure 42
0001
0000
1000
0000
,  // measure 43
0010
0000
0100
0000
,  // measure 44
0001
0000
0100
0000
,  // measure 45
1000
0000
0100
0000
,  // measure 46
0001
0000
1000
0000
,  // measure 47
1000
0000
0100
0000
,  // measure 48
0001
0000
0100
0000
,  // measure 49
0001
0000
0010
0000
,  // measure 50
1000
0000
0010
0000
,  // measure 51
0001
0000
0010
0000
,  // measure 52
1000
0000
0001
0000
,  // measure 53
0010
0000
0100
0000
,  // measure 54
0010
0000
0100
0000
,  // measure 55
0001
0000
0010
0000
,  // measure 56
0100
0000
0100
0000
,  // measure 57
1000
0000
1000
1000
,  // measure 58
0000
1000
0000
1000
,  // measure 59
0000
0100
0000
0010
,  // measure 60
0000
1000
0000
0000
,  // measure 61
0010
0000
0000
2000
,  // measure 62
0000
0000
0000
0000
,  // measure 63
0000
0000
0000
0000
,  // measure 64
0000
3000
0000
0000
,  // measure 65
0010
0000
0000
0010
,  // measure 66
0010
0010
0001
0001
;
