#TITLE:HELL IS FOREVER ;
#SUBTITLE:;
#ARTIST:Hazbin Hotel;
#TITLETRANSLIT:;
#SUBTITLETRANSLIT:;
#ARTISTTRANSLIT:;
#GENRE:;
#CREDIT:Gorilla v1.1.3 (Dancing Monkeys v1.06);
#BANNER:;
#BACKGROUND:;
#LYRICSPATH:;
#CDTITLE:;
#MUSIC:HELL IS FOREVER (sped up to Perfection).mp3;
#OFFSET:-0.389646;
#SAMPLESTART:37.227142;
#SAMPLELENGTH:12.000000;
#SELECTABLE:YES;
#BPMS:0.000000=162.000000
;
#STOPS:
;
#BGCHANGES:;
#KEYSOUNDS:;
#ATTACKS:;

//---------------dance-single - Basic----------------
#NOTES:
     dance-single:
     Basic:
     Easy:
     3:
     0.203430,0.281566,0.000000,0.043152,0.000000,132.000000,132.000000,0.000000,4.000000,0.000000,0.000000,0.203430,0.281566,0.000000,0.043152,0.000000,132.000000,132.000000,0.000000,4.000000,0.000000,0.000000:
// measure 0
1000
0000
1000
0000
,  // measure 1
0001
0000
0001
0000
,  // measure 2
0000
0001
0000
0001
,  // measure 3
0001
0000
0010
0000
,  // measure 4
1000
0100
0010
0000
,  // measure 5
0001
0000
0010
0000
,  // measure 6
0001
0100
0001
0010
,  // measure 7
1000
0010
0010
1000
,  // measure 8
1000
0001
0000
0001
,  // measure 9
1000
0001
0000
0001
,  // measure 10
1000
0001
0000
0001
,  // measure 11
1000
0100
0010
0000
,  // measure 12
0001
1000
0100
0000
,  // measure 13
1000
0100
0010
0000
,  // measure 14
1000
0001
0000
0001
,  // measure 15
1000
0001
0000
0001
,  // measure 16
0001
0000
0010
0000
,  // measure 17
0001
0100
0100
0000
,  // measure 18
0001
0000
0010
0000
,  // measure 19
1000
0000
1000
0000
,  // measure 20
0000
0001
0001
0001
,  // measure 21
1000
1000
1000
0010
,  // measure 22
0010
0010
0000
0001
,  // measure 23
0001
0010
0010
1000
,  // measure 24
1000
0001
0000
0001
,  // measure 25
0001
0001
0000
1000
,  // measure 26
1000
1000
0000
0200
,  // measure 27
0000
0000
0000
0300
,  // measure 28
0000
1000
0002
0000
,  // measure 29
0000
0000
0003
0000
,  // measure 30
2000
0000
0000
0000
,  // measure 31
0000
3000
0000
0000
,  // measure 32
1000
0000
0001
0000
,  // measure 33
0010
0000
0010
0000
,  // measure 34
1000
0000
1000
0000
,  // measure 35
0001
0000
0001
0000
,  // measure 36
0001
0000
1000
0000
,  // measure 37
0010
0000
0100
0000
,  // measure 38
0010
0010
0010
0010
,  // measure 39
0000
1000
1000
0000
,  // measure 40
0000
0001
0000
1000
,  // measure 41
0000
1000
0100
0000
,  // measure 42
0000
0001
0000
0001
,  // measure 43
0000
0010
0000
0001
,  // measure 44
0000
1000
0000
0100
,  // measure 45
0000
0100
0000
0000
,  // measure 46
0001
0000
0100
0000
,  // measure 47
0001
0000
1000
0000
,  // measure 48
1000
0000
0001
0000
,  // measure 49
0001
0000
0010
0000
,  // measure 50
0010
0000
0010
0000
,  // measure 51
0001
0000
0010
0000
,  // measure 52
1000
0000
0010
0000
,  // measure 53
0010
0000
0010
0000
,  // measure 54
1000
0000
0010
0000
,  // measure 55
0001
0000
0001
0000
,  // measure 56
1000
0000
1000
0000
,  // measure 57
0002
0000
0000
0000
,  // measure 58
0003
0000
0000
0000
;
