#TITLE:HEAVEN IS A PLACE ON EARTH;
#SUBTITLE:Cardio Blast;
#ARTIST:C.B;
#TITLETRANSLIT:;
#SUBTITLETRANSLIT:;
#ARTISTTRANSLIT:;
#GENRE:Techno;
#CREDIT:;
#BANNER:;
#BACKGROUND:;
#LYRICSPATH:;
#CDTITLE:;
#MUSIC:onlymp3.to - Belinda Carlisle Heaven Is a Place on Earth C. Baumann Remix HANDS UP -deH0xHumtnA-192k-1706590377.mp3;
#OFFSET:0.000000;
#SAMPLESTART:1.591000;
#SAMPLELENGTH:20.000000;
#SELECTABLE:YES;
#DISPLAYBPM:141.000000;
#BPMS:0.000000=141.000000
;
#STOPS:
;
#BGCHANGES:3.750=HEAVEN IS A PLACE ON EARTH (German Election Mix).avi=1.000=1=0=0=StretchNoLoop==CrossFade==,
99999=-nosongbg-=1.000=0=0=0 // don't automatically add -songbackground-
;
#KEYSOUNDS:;
#ATTACKS:;

//---------------dance-single - ----------------
#NOTES:
     dance-single:
     :
     Easy:
     6:
     0.296468,0.372650,0.066333,0.099500,0.000000,438.000000,424.000000,14.000000,21.000000,0.000000,0.000000,0.296468,0.372650,0.066333,0.099500,0.000000,438.000000,424.000000,14.000000,21.000000,0.000000,0.000000:
// measure 0
0000
0000
2002
0000
,  // measure 1
0000
3003
0200
0000
,  // measure 2
0000
0300
0020
0000
,  // measure 3
0030
2000
0000
0000
,  // measure 4
3000
0000
0020
0000
,  // measure 5
0030
0000
2000
0000
,  // measure 6
0000
3000
0200
0000
,  // measure 7
0000
0300
0020
0000
,  // measure 8
0000
0030
0100
0010
,  // measure 9
0001
0100
1000
0100
,  // measure 10
0010
1000
0100
1000
,  // measure 11
0010
0100
0001
0010
,  // measure 12
0100
0001
1000
1000
,  // measure 13
0100
0100
0010
0010
,  // measure 14
0001
0001
0100
0100
,  // measure 15
0001
0200
0000
0000
,  // measure 16
0000
0300
1001
0010
,  // measure 17
0100
0001
0100
0001
,  // measure 18
1000
0100
0001
0100
,  // measure 19
0010
1000
0001
1000
,  // measure 20
0100
0010
0010
1000
,  // measure 21
0001
0010
0100
0010
,  // measure 22
1000
0001
0100
0010
,  // measure 23
1000
0100
0010
0001
,  // measure 24
0100
1000
0001
0100
,  // measure 25
0010
0001
0100
1000
,  // measure 26
0010
0001
1000
0001
,  // measure 27
1000
0010
0010
0100
,  // measure 28
0010
1000
0001
0010
,  // measure 29
0100
0010
0001
1000
,  // measure 30
0001
0100
0100
0100
,  // measure 31
0010
0010
0010
1000
,  // measure 32
0001
2000
0000
3000
,  // measure 33
0002
0000
0003
0010
,  // measure 34
1000
0010
1000
0001
,  // measure 35
0100
0010
0100
0001
,  // measure 36
0010
1001
0010
0100
,  // measure 37
1001
0010
0100
1001
,  // measure 38
0010
1001
0010
0100
,  // measure 39
1000
0001
0100
0010
,  // measure 40
0100
1001
0010
0100
,  // measure 41
1000
0010
1000
0001
,  // measure 42
0100
0001
0100
0010
,  // measure 43
0100
1000
0001
0010
,  // measure 44
1000
0001
0100
0010
,  // measure 45
0001
0100
1000
0001
,  // measure 46
1000
0100
0001
0010
,  // measure 47
1000
0100
1000
0001
,  // measure 48
0100
0010
0100
1000
,  // measure 49
0001
1000
0001
0100
,  // measure 50
1001
0100
0010
0001
,  // measure 51
1000
0010
0100
1000
,  // measure 52
0001
0100
0010
1000
,  // measure 53
0001
0010
1001
0010
,  // measure 54
0100
1000
0100
0001
,  // measure 55
0010
0100
1000
0001
,  // measure 56
2000
0000
0000
3000
,  // measure 57
0002
0000
0000
0003
,  // measure 58
2000
0000
0000
3000
,  // measure 59
0002
0000
0000
0000
,  // measure 60
0003
0200
0000
0000
,  // measure 61
0000
0300
0010
0100
,  // measure 62
1000
0010
0100
1000
,  // measure 63
0010
0001
0100
0010
,  // measure 64
1001
0100
0010
0100
,  // measure 65
0010
0100
0010
0100
,  // measure 66
0010
0100
0010
1000
,  // measure 67
0001
1000
0001
1000
,  // measure 68
0001
1000
0001
1000
,  // measure 69
0001
1000
0001
1000
,  // measure 70
0001
1000
0001
1000
,  // measure 71
0001
1000
0001
0100
,  // measure 72
1001
0010
0100
0010
,  // measure 73
0100
1000
0001
1000
,  // measure 74
0001
0100
0010
1000
,  // measure 75
0001
0010
0100
1000
,  // measure 76
0010
0100
0001
1000
,  // measure 77
0010
0100
0001
1000
,  // measure 78
0010
0100
0001
1000
,  // measure 79
0010
1000
0100
0001
,  // measure 80
0010
0100
1000
0010
,  // measure 81
0001
0100
0001
0010
,  // measure 82
1000
0100
0010
1000
,  // measure 83
0001
0010
0100
0001
,  // measure 84
0010
0100
1000
0010
,  // measure 85
0100
0001
0010
0100
,  // measure 86
1000
0010
0001
0100
,  // measure 87
0010
1000
0001
0100
,  // measure 88
2002
0000
0000
0000
,  // measure 89
0000
3003
1001
0100
,  // measure 90
0010
1000
0001
0010
,  // measure 91
0100
0010
0001
1000
,  // measure 92
0100
0010
1000
0001
,  // measure 93
0010
0100
0001
0010
,  // measure 94
1000
0100
0010
0001
,  // measure 95
0010
0100
0001
1000
,  // measure 96
0100
0010
0100
0001
,  // measure 97
1000
0100
1000
0010
,  // measure 98
0100
0001
0010
1000
,  // measure 99
0100
0001
0010
1000
,  // measure 100
0100
0001
0010
0100
,  // measure 101
1000
0010
0100
0001
,  // measure 102
0010
1000
0100
0001
,  // measure 103
0010
1000
0100
0001
,  // measure 104
0010
0100
0001
1000
,  // measure 105
0100
0001
0010
0100
,  // measure 106
0010
0001
1000
0100
,  // measure 107
0010
0100
0010
0100
,  // measure 108
0010
0100
1000
0010
,  // measure 109
0100
0001
0010
1000
,  // measure 110
0100
0001
0010
0100
,  // measure 111
1000
0010
0100
0001
,  // measure 112
1000
0100
0010
0001
,  // measure 113
0100
0010
1000
0001
,  // measure 114
0100
1000
0010
0100
,  // measure 115
1000
0001
0010
0100
,  // measure 116
1000
0010
0100
0001
,  // measure 117
0010
0100
1000
0010
,  // measure 118
0100
0001
0010
0100
,  // measure 119
1000
0010
0001
2002
,  // measure 120
0000
0000
0000
0000
,  // measure 121
3003
0000
0000
0000
;

//---------------dance-single - ----------------
#NOTES:
     dance-single:
     :
     Beginner:
     2:
     0.111683,0.132074,0.004738,0.033167,0.000000,165.000000,164.000000,1.000000,7.000000,0.000000,0.000000,0.111683,0.132074,0.004738,0.033167,0.000000,165.000000,164.000000,1.000000,7.000000,0.000000,0.000000:
0000
0000
0000
0000
,
0000
0000
1000
0000
,
0000
0000
0001
0000
,
0000
0000
1000
0000
,
0000
0000
0001
0000
,
0000
0000
1000
0000
,
0000
0000
0001
0000
,
0000
0000
0100
0000
,
0000
0000
0020
0000
,
0000
0000
0000
0000
,
0000
0030
2000
0000
,
0000
0000
0000
0000
,
3000
0000
0002
0000
,
0000
0000
0000
0000
,
0000
0003
2000
0000
,
0000
3000
0002
0000
,
0003
0000
0100
0100
,
0100
0001
0010
0010
,
0010
0200
0000
0000
,
0300
0001
0001
1000
,
1000
0200
0000
0000
,
0300
0001
0010
1000
,
0100
0010
0010
0100
,
0100
0010
0010
0100
,
0100
1000
0001
0010
,
0100
0001
1000
0100
,
0010
1000
0010
0001
,
0010
1000
0001
0010
,
1000
0100
1000
0010
,
1000
0001
0010
1000
,
0100
0001
0100
1000
,
0100
0001
1000
0010
,
0001
0100
0001
1000
,
0001
0010
1000
0001
,
0010
0100
0001
1000
,
0010
0001
0100
0010
,
1000
0100
0010
0001
,
1000
0100
0001
1000
,
0100
0001
0010
0001
,
1000
0001
0100
1000
,
0010
0100
0001
0010
,
0100
0010
0010
0100
,
0100
1000
0010
1000
,
0001
0010
0100
1000
,
0010
0001
0100
0001
,
0100
1000
0100
0001
,
0010
0100
1000
0010
,
0100
0001
1000
0010
,
0100
1000
0010
0100
,
0001
0010
0100
0010
,
1001
0100
1000
0001
,
0010
0100
1000
0001
,
0010
0100
0001
0010
,
0100
1000
0001
0100
,
0001
1000
0100
0001
,
0010
0100
1000
0010
;
