#VERSION:0.83;
#TITLE:Heaven;
#SUBTITLE:;
#ARTIST:DJ Sammy & Yanou featuring DO;
#TITLETRANSLIT:;
#SUBTITLETRANSLIT:;
#ARTISTTRANSLIT:;
#GENRE:;
#ORIGIN:;
#CREDIT:;
#BANNER:Heaven.png;
#BACKGROUND:Heaven-bg.png;
#PREVIEWVID:;
#JACKET:Heaven-jacket.png;
#CDIMAGE:;
#DISCIMAGE:Heaven 1.png;
#LYRICSPATH:;
#CDTITLE:;
#MUSIC:onlymp3.to - dj sammy yanou feat. do heaven INSTRUMENTAL VERSION-A--hn8po_Z8-192k-1707981549.mp3;
#OFFSET:-1.172000;
#SAMPLESTART:61.980000;
#SAMPLELENGTH:12.000000;
#SELECTABLE:YES;
#DISPLAYBPM:138.000000;
#BPMS:0.000=138.030;
#STOPS:;
#DELAYS:;
#WARPS:;
#TIMESIGNATURES:0.000=4=4;
#TICKCOUNTS:0.000=4;
#COMBOS:0.000=1;
#SPEEDS:0.000=1.000=0.000=0;
#SCROLLS:0.000=1.000;
#FAKES:;
#LABELS:0.000=Song Start;
#BGCHANGES:;
#KEYSOUNDS:;
#ATTACKS:
;

//---------------dance-single - ----------------
#NOTEDATA:;
#CHARTNAME:;
#STEPSTYPE:dance-single;
#DESCRIPTION:;
#CHARTSTYLE:;
#DIFFICULTY:Beginner;
#METER:1;
#RADARVALUES:0.071700,0.085501,0.004442,0.000000,0.000000,113.000000,112.000000,1.000000,0.000000,0.000000,0.000000,0.000000,0.000000,0.000000,0.071700,0.085501,0.004442,0.000000,0.000000,113.000000,112.000000,1.000000,0.000000,0.000000,0.000000,0.000000,0.000000,0.000000;
#CREDIT:;
#DISPLAYBPM:138.000000;
#NOTES:
0000
0000
0000
0000
,
0000
0000
0000
0000
,
0001
0000
1000
0000
,
0010
0000
0000
0000
,
1000
0000
0100
0000
,
0001
0000
0010
0000
,
1000
0000
0001
0000
,
0100
0000
0000
0000
,
0001
0000
1000
1000
,
1000
0000
0000
0000
,
1000
0000
0001
0001
,
0001
0000
0000
0000
,
0100
0000
0100
0000
,
0010
0000
0010
0000
,
1000
0000
0001
0000
,
0100
0100
0100
0100
,
0100
0000
0000
0000
,
0001
0000
0100
0000
,
1000
0000
0100
0000
,
0001
0001
0001
0000
,
1000
1000
1000
0000
,
0010
0000
1000
0000
,
0010
0010
0010
0000
,
0100
0000
0001
0000
,
0100
0100
0000
1000
,
1000
0000
0100
0000
,
0001
0000
0100
0000
,
1000
0000
0100
0000
,
0001
0000
0100
0000
,
0010
0000
0001
0000
,
0010
0010
0000
0100
,
0100
0000
1000
0000
,
0100
0100
0000
1000
,
1000
0000
0001
0000
,
0001
0000
1000
0000
,
1000
0000
0001
0000
,
1000
0000
0001
0000
,
0001
0000
1000
0000
,
0010
0000
0100
0000
,
1000
0000
0100
0000
,
0001
0000
0010
0000
,
1000
0000
0001
0000
,
1000
0000
0001
0000
,
0001
0000
1000
0000
,
0001
0000
1000
0000
,
1000
0000
0001
0000
,
0010
0000
0100
0000
,
0001
0000
0100
0000
,
1000
0000
0010
0000
,
0001
0000
1000
0000
,
1000
0000
0001
0000
,
0001
0000
0100
0000
,
1000
0000
0100
0000
,
0001
0000
1000
0000
,
0010
0000
0100
0000
,
0110
0000
0000
0000
;

//---------------dance-single - ----------------
#NOTEDATA:;
#CHARTNAME:;
#STEPSTYPE:dance-single;
#DESCRIPTION:;
#CHARTSTYLE:;
#DIFFICULTY:Easy;
#METER:4;
#RADARVALUES:0.144035,0.129917,0.000000,0.004442,0.000000,227.000000,227.000000,0.000000,1.000000,0.000000,0.000000,0.000000,0.000000,0.000000,0.144035,0.129917,0.000000,0.004442,0.000000,227.000000,227.000000,0.000000,1.000000,0.000000,0.000000,0.000000,0.000000,0.000000;
#CREDIT:;
#DISPLAYBPM:138.000000;
#NOTES:
// measure 0
0000
0000
0000
0000
,  // measure 1
2000
0000
0000
3000
,  // measure 2
0001
0000
1000
0000
,  // measure 3
0010
0000
0001
0000
,  // measure 4
1000
0000
0100
0000
,  // measure 5
0001
0000
0010
0000
,  // measure 6
1000
0000
0001
0000
,  // measure 7
0100
0000
0010
0000
,  // measure 8
0001
0000
0100
0000
,  // measure 9
1000
1000
0010
0000
,  // measure 10
1000
0000
0010
0000
,  // measure 11
0001
0001
0100
0000
,  // measure 12
0100
0000
0100
0000
,  // measure 13
0010
0000
0010
0000
,  // measure 14
1000
0000
0001
0000
,  // measure 15
0100
0100
0100
0100
,  // measure 16
0100
0000
0010
0000
,  // measure 17
0001
0001
0100
0100
,  // measure 18
1000
1000
0100
0100
,  // measure 19
0001
0001
0001
0100
,  // measure 20
1000
1000
1000
0010
,  // measure 21
0010
0010
1000
1000
,  // measure 22
1000
0010
0010
0100
,  // measure 23
0100
0001
0001
0001
,  // measure 24
0100
0100
0001
1000
,  // measure 25
1000
0100
0100
0001
,  // measure 26
0001
0100
0100
1000
,  // measure 27
1000
1000
0100
0100
,  // measure 28
0001
0001
0100
0100
,  // measure 29
0001
0001
0001
0010
,  // measure 30
0010
0010
0001
0100
,  // measure 31
0100
0100
1000
0100
,  // measure 32
0100
0100
1000
0001
,  // measure 33
1000
1000
1000
0001
,  // measure 34
0001
0001
1000
0000
,  // measure 35
1000
0100
0001
0100
,  // measure 36
1000
0001
0001
1000
,  // measure 37
0001
0001
1000
1000
,  // measure 38
0010
0010
0100
0010
,  // measure 39
1000
1000
0100
1000
,  // measure 40
0001
0010
0010
1000
,  // measure 41
1000
0100
0001
0001
,  // measure 42
0001
0001
1000
1000
,  // measure 43
0001
0100
0100
0100
,  // measure 44
0001
0001
1000
1000
,  // measure 45
1000
0001
0001
0001
,  // measure 46
0010
0010
0100
0010
,  // measure 47
0001
0100
0100
1000
,  // measure 48
1000
0010
0010
0001
,  // measure 49
0001
0100
0100
0001
,  // measure 50
0001
1000
1000
1000
,  // measure 51
0001
0001
0100
0100
,  // measure 52
1000
1000
0100
0100
,  // measure 53
0010
0010
0100
0100
,  // measure 54
0010
0010
0100
0100
,  // measure 55
0001
0001
0001
1000
,  // measure 56
1000
1000
0010
0010
,  // measure 57
0010
0100
0100
0100
,  // measure 58
0001
0001
0001
1000
,  // measure 59
1000
1000
0010
0010
,  // measure 60
1000
1000
0001
0001
,  // measure 61
0010
0010
1000
1000
,  // measure 62
0100
0010
0001
0010
,  // measure 63
0100
1000
0100
0010
,  // measure 64
0001
0010
0100
1000
,  // measure 65
0010
0000
0000
0000
;

//---------------dance-single - ----------------
#NOTEDATA:;
#CHARTNAME:;
#STEPSTYPE:dance-single;
#DESCRIPTION:;
#CHARTSTYLE:;
#DIFFICULTY:Medium;
#METER:6;
#RADARVALUES:0.154187,0.174111,0.048858,0.199872,0.000000,243.000000,232.000000,11.000000,45.000000,0.000000,0.000000,0.000000,0.000000,0.000000,0.154187,0.174111,0.048858,0.199872,0.000000,243.000000,232.000000,11.000000,45.000000,0.000000,0.000000,0.000000,0.000000,0.000000;
#CREDIT:;
#DISPLAYBPM:138.000000;
#NOTES:
0000
0000
0000
0000
,
1000
0001
1000
0000
0200
0000
0310
0000
,
0001
0001
1000
1000
,
0020
0030
0100
0000
,
0020
1030
0200
0301
,
2000
3010
0002
0103
,
0010
1000
0100
0000
0010
0001
0100
0000
,
1000
0000
0001
0011
,
0001
1000
0001
0100
,
1000
0100
1000
0000
0020
0000
0130
0000
,
1000
0001
1000
0100
,
0001
0100
0001
0000
0200
0000
0310
0000
,
0100
0200
0301
0002
,
1003
2000
3200
0300
,
0010
0001
0010
0010
,
0100
0100
0100
0100
,
0002
2003
3100
0000
,
0001
1000
0002
0103
,
1000
0001
2000
3100
,
0001
0010
0010
0000
1000
0100
0100
0000
,
0001
0010
1000
0100
,
0001
0000
2000
0000
3010
1000
0100
0000
,
1000
0000
0002
0000
0013
0001
0100
0000
,
1000
0010
0001
0100
,
1000
0100
0001
0100
,
1000
0001
2000
3100
,
0001
1000
0002
0103
,
1000
0010
0010
0000
0001
0100
0100
0000
,
1000
0010
0001
0100
,
1000
0000
0002
0000
0013
0001
0100
0000
,
0001
0000
2000
0000
3010
1000
0100
0000
,
0001
0010
1000
0100
,
0001
0100
1000
0100
,
0002
0000
2000
3003
,
0200
0300
1001
0110
,
0010
0100
0010
0000
0002
0000
0103
0000
,
1000
0001
1000
0000
0200
0000
0310
0000
,
0001
0001
1000
1000
,
0020
0030
0100
0110
,
0020
1030
0200
0301
,
2000
3010
0002
0103
,
0010
1000
0100
0000
0010
0001
0100
0000
,
1000
1100
0010
0011
,
0010
0100
0010
0000
2000
0000
3010
0000
,
0001
1000
0001
0000
0200
0000
0310
0000
,
1000
0000
1001
0000
0001
1000
0001
0000
,
0020
0030
0100
0110
,
0020
0031
0200
1300
,
0002
0100
0103
0000
2000
0010
3010
0000
,
0010
0001
0100
0000
0010
1000
0100
0010
,
0001
0110
1000
0110
,
0002
1000
0100
0103
,
2000
0001
0100
3100
,
0001
0100
1000
0100
,
0002
0103
0200
0310
,
2002
0000
0000
0000
,
3003
0000
0000
0000
;

//---------------dance-single - ----------------
#NOTEDATA:;
#CHARTNAME:;
#STEPSTYPE:dance-single;
#DESCRIPTION:;
#CHARTSTYLE:;
#DIFFICULTY:Hard;
#METER:7;
#RADARVALUES:0.172588,0.186547,0.053299,0.217638,0.006662,272.000000,260.000000,12.000000,49.000000,0.000000,0.000000,0.000000,0.000000,0.000000,0.172588,0.186547,0.053299,0.217638,0.006662,272.000000,260.000000,12.000000,49.000000,0.000000,0.000000,0.000000,0.000000,0.000000;
#CREDIT:;
#DISPLAYBPM:138.000000;
#NOTES:
0000
0000
0000
0000
,
0000
0000
0000
0000
,
0020
0000
0130
0000
1000
0001
0100
0000
,
0002
0000
0103
0000
2000
0000
3100
0010
,
0200
0000
0310
0000
0001
1000
0010
0000
,
1000
0001
1000
0000
0001
0000
0010
0000
,
2000
3100
0200
0310
,
0020
0000
0001
0130
,
0010
0000
0000
0000
0101
0000
0000
0000
0010
0000
0000
1000
0000
0000
0100
0000
,
0010
0002
0103
0001
,
0010
0000
0000
0000
0110
0000
0000
0000
0010
0000
0000
0100
0000
0000
0010
0000
,
0100
2000
3010
1000
,
0010
0000
0000
0000
1100
0000
0000
0000
0010
0000
0000
0001
0000
0000
0010
0000
,
0100
2000
3100
1000
,
0010
0001
0100
0000
0010
1000
0001
0010
,
0100
0100
0100
0100
,
0220
0000
0000
0330
,
1001
0000
2000
3100
,
0001
0010
0100
0000
0002
0000
0103
0000
,
1000
0100
0010
0000
1000
0100
0010
0000
,
0020
0031
0200
1300
,
0001
0100
0001
0000
1000
0100
1000
0000
,
0010
0100
0010
1000
0001
0100
0010
0000
,
0002
0013
2000
3100
,
0001
0010
1000
0100
,
2000
0100
3002
0103
,
1000
0010
0100
0000
2000
0000
3100
0000
,
0001
0100
0010
0000
0001
0100
0010
0000
,
0020
1030
0200
0301
,
1000
0100
1000
0000
0001
0100
0001
0000
,
0010
0100
0010
0001
1000
0100
0010
0000
,
2000
3010
0002
0103
,
1000
0010
0001
0100
,
0020
0000
0002
0033
,
0200
0300
0110
1001
,
0200
0000
0310
0000
0001
1000
0010
0000
,
0010
0100
0010
0000
0001
1000
0002
0000
,
2003
3100
0002
0013
,
0001
1001
0100
0110
,
0200
0000
0310
0100
0010
0001
1000
0000
,
0001
0100
0002
0000
1003
0100
2000
0000
,
3010
0000
0010
0000
1000
0100
0001
0000
,
2000
0000
3100
0000
1000
0100
1000
0100
,
0020
0000
0130
0000
1000
0001
0010
0000
,
0010
0100
0010
0000
1000
0001
2000
0000
,
3001
0100
0001
0000
1000
0010
0100
0010
,
1000
1001
0100
0110
,
0200
0000
0310
0100
0010
1000
0001
0100
,
1000
0100
2000
0000
3001
0100
0002
0000
,
0013
0000
0010
0000
0001
0100
0001
0010
,
0100
0010
1000
0100
0010
0001
1000
0001
,
2000
0000
0000
0000
3001
1000
0100
0000
,
0002
0000
0000
0000
1003
0001
0100
0000
,
0001
0100
0010
1000
0200
0000
0310
0000
,
0002
2003
3020
0130
,
0220
0000
0000
0000
,
0330
0000
0000
0000
;

//---------------dance-double - ----------------
#NOTEDATA:;
#CHARTNAME:;
#STEPSTYPE:dance-double;
#DESCRIPTION:;
#CHARTSTYLE:;
#DIFFICULTY:Easy;
#METER:3;
#RADARVALUES:0.090101,0.122144,0.062182,0.044416,0.000000,142.000000,128.000000,14.000000,10.000000,0.000000,0.000000,0.000000,0.000000,0.000000,0.090101,0.122144,0.062182,0.044416,0.000000,142.000000,128.000000,14.000000,10.000000,0.000000,0.000000,0.000000,0.000000,0.000000;
#CREDIT:;
#DISPLAYBPM:138.000000;
#NOTES:
00000000
00000000
00000000
00000000
,
00000000
00000000
00000000
00000000
,
00000001
00000000
00000001
00000000
,
00001000
00000000
00000000
00000000
,
00001000
00000000
00001000
00000000
,
00000001
00000000
00000000
00000000
,
00000200
00000000
00000000
00000300
,
00000000
00000000
00000000
00000000
,
00011000
00000000
00010000
00000000
,
00100000
00000000
00000000
00000000
,
10010000
00000000
01000000
00000000
,
01000000
00000000
00000000
00000000
,
10010000
00010000
00010000
00010000
,
10000000
00000000
00000000
00000000
,
01100000
00000000
01000000
00000000
,
00010000
00010000
00001000
00001000
,
00022000
00000000
00000000
00033000
,
00011000
00000000
00001000
00000100
,
00000001
00000000
00000001
00000000
,
00001000
00001000
00001000
00000000
,
00000000
00000000
00000000
00000010
,
00000010
00000010
00000100
00000100
,
00000100
00000000
00000000
00000001
,
00000100
00001000
00000000
00010000
,
00020000
00000000
00000000
00030000
,
00011000
00000000
00010000
01000000
,
10000000
10000000
10000000
10000000
,
00010000
00010000
00010000
00000000
,
00000000
00000000
00000000
00100000
,
00100000
00100000
01000000
01000000
,
01000000
00000000
01000000
10000000
,
01000000
00010000
00000000
00010000
,
00000000
00010000
00000000
00001000
,
00022000
00000000
00000000
00033000
,
00001000
00000000
00000100
00000001
,
00001001
00000001
00001000
00001000
,
00000001
00000000
00000001
00001000
,
00000001
00000001
00000100
00000100
,
00001000
00000000
00000000
00000000
,
00010000
00010000
00001000
00001000
,
00011000
00000000
00001000
00000000
,
00020000
00000000
00000000
00030000
,
00200000
00000000
00000000
00300000
,
10010000
10000000
00010000
00010000
,
10000000
00000000
10000000
00010000
,
10000000
10000000
01000000
01000000
,
00010000
00000000
00000000
00000000
,
00001000
00001000
00010000
00010000
,
00011000
00000000
00001000
00001000
,
00002000
00000000
00000000
00003010
,
00000020
00000000
00000000
00000030
,
00001001
00000001
00001000
00001000
,
00000100
00000000
00000010
00000000
,
00000001
00000001
00001000
00001000
,
00010000
00010000
10000000
10000000
,
10010000
00000000
00000000
00000000
;

//---------------dance-double - ----------------
#NOTEDATA:;
#CHARTNAME:;
#STEPSTYPE:dance-double;
#DESCRIPTION:;
#CHARTSTYLE:;
#DIFFICULTY:Medium;
#METER:6;
#RADARVALUES:0.138324,0.158787,0.053299,0.044416,0.000000,218.000000,206.000000,12.000000,10.000000,0.000000,0.000000,0.000000,0.000000,0.000000,0.138324,0.158787,0.053299,0.044416,0.000000,218.000000,206.000000,12.000000,10.000000,0.000000,0.000000,0.000000,0.000000,0.000000;
#CREDIT:;
#DISPLAYBPM:138.000000;
#NOTES:
00000000
00000000
00000000
00000000
,
00000000
00000000
00000000
00000000
,
10000000
00000000
10000000
10000000
,
00010000
00000000
00010000
00000000
,
01000000
00000000
00100000
00010000
,
00001000
00000000
00001000
00000010
,
00002002
00000000
00000000
00003003
,
00000000
00000000
00000000
00000000
,
00001001
00000001
00001000
00000020
,
00000100
00000000
00000100
00000030
,
00000001
00000100
00001000
00020000
,
00001000
00000000
00001000
00030000
,
00011000
00000000
00010000
00000000
01000000
00000000
10000000
00010000
,
20000000
00000000
00010000
30010000
,
00100000
01000000
00100000
00000000
00010000
10000000
00010000
00000000
,
10000000
10000000
10000000
10000000
,
10000000
00000000
01000000
00010000
,
00011000
00001000
00000100
00000001
,
00000001
00001000
00001000
00000001
,
00000001
00001000
00000001
00000000
00000010
00000000
00000100
00000000
,
00001000
00000001
00000100
00001000
,
00010000
01000000
10000000
10000000
,
10000000
00010000
00100000
01000000
,
10000000
00100000
01000000
01000000
,
00010000
10000000
01000000
00010000
,
00011000
00001000
00000100
00000001
,
00000001
00001000
00001000
00000001
,
00000001
00001000
00000001
00000000
00000010
00000000
00000100
00000000
,
00001000
00000001
00000100
00001000
,
00010000
01000000
10000000
10000000
,
10000000
00010000
00100000
01000000
,
10000000
00100000
01000000
01000000
,
00010000
10000000
01000000
00000000
01000000
00100000
01000000
00000000
,
20020000
00000000
00000000
30030000
,
01100000
00000000
00100000
00010000
00000000
00000000
00011000
00000000
,
00000000
00001000
00000000
00001000
,
00001000
00001000
00001000
00000010
,
00000100
00000000
00000001
00000000
00000010
00000000
00001000
00010000
,
00001000
00010000
01000000
10000000
,
00010000
01000000
10000000
00000000
10000000
00000000
10000000
00010000
,
10000000
00010000
00010000
00100000
,
01000000
10000000
00100000
00010000
,
00010000
00001000
00000010
00000001
,
00001000
00000100
00000001
00000000
00000001
00000000
00000001
00001000
,
00000001
00001000
00001000
00000010
,
00000100
00000000
00000001
00000000
00000010
00000000
00001000
00010000
,
00001000
00010000
01000000
10000000
,
00010000
10000000
00010000
00000000
10000000
00000000
10000000
00000000
,
00200000
01000000
01000000
01300000
,
20020000
00000000
00000000
30030000
,
10000000
01000000
00010000
00000000
00001000
00000010
00000001
00000000
,
00001000
00000001
00000101
00001000
,
00000110
00000000
00000001
00000000
00001000
00000001
00001000
00000000
,
00000001
00000000
00000010
00000000
00001000
00010000
01000000
00000000
,
00010000
00000000
10000000
00000000
10000000
00010000
01000000
00000000
,
10010000
00000000
00000000
00000000
;

//---------------dance-double - ----------------
#NOTEDATA:;
#CHARTNAME:;
#STEPSTYPE:dance-double;
#DESCRIPTION:;
#CHARTSTYLE:;
#DIFFICULTY:Hard;
#METER:7;
#RADARVALUES:0.170684,0.185714,0.071066,0.039974,0.006662,269.000000,253.000000,16.000000,9.000000,0.000000,0.000000,0.000000,0.000000,0.000000,0.170684,0.185714,0.071066,0.039974,0.006662,269.000000,253.000000,16.000000,9.000000,0.000000,0.000000,0.000000,0.000000,0.000000;
#CREDIT:;
#DISPLAYBPM:138.000000;
#NOTES:
00000000
00000000
00000000
00000000
,
00000000
00000000
00000000
00000000
,
00000001
00000000
00000001
00000000
00001000
00000001
00001000
00000000
,
00000002
00000100
00000000
00000103
,
00000010
00001000
00000100
00000000
00000010
00000000
00000010
00000000
,
00000002
00000000
00000000
00000000
00000003
00000001
00000100
00001000
,
00020000
00000000
00000000
00030000
,
00001000
00010000
01000000
10000000
,
10010000
00000000
00000000
00000000
01000000
00000000
00000000
00000000
00100000
00000000
00000000
10000000
00000000
00000000
00010000
00000000
,
01000000
01000000
00000000
01000000
,
00100000
00000000
00000000
00000000
10000000
00000000
00000000
00000000
01000000
00000000
00000000
00010000
00000000
00000000
00001000
00000000
,
00000100
00000100
00000000
00000100
,
00001001
00000000
00000000
00000000
00000100
00000000
00000000
00000000
00000010
00000000
00000000
00000001
00000000
00000000
00000100
00000000
,
00000010
00000000
00000000
00000000
,
00001000
00010000
00001000
00000000
00010000
01000000
10000000
00000000
,
10010000
01100000
01010000
10000000
,
00020000
01000000
00000000
01000000
00000000
01000000
00030000
01000000
,
00010000
10000000
01000000
00000000
00010000
00000000
00001000
00000000
,
00000100
00000000
00000001
00001000
00000100
00000000
00000100
00000000
,
00000010
00000001
00000100
00000000
00000100
00000000
00000010
00000000
,
00001000
00000100
00010000
00000000
00000100
00000000
00010000
00001000
,
00010000
00000000
01000000
00000000
00100000
00000000
10000000
00010000
,
10000000
00000000
10000000
00000000
10000000
01000000
10000000
00010000
,
10000000
00100000
01000000
00010000
,
00200000
01000000
01000000
01300000
,
10010000
01000000
00010000
00001000
,
00000100
00000000
00000001
00001000
00000100
00000000
00000100
00000000
,
00000010
00000001
00000100
00000000
00000100
00000000
00000010
00000000
,
00001000
00000000
00000001
00000000
00000010
00000000
00001000
00010000
,
01000000
10000000
00100000
10000000
,
00010000
00000000
00010000
00000000
00010000
01000000
00010000
10000000
,
00020000
00130000
00200000
01300000
,
10000000
00010000
01000000
00000000
00100000
10000000
01000000
00000000
,
01010000
00001000
00010000
00000100
,
00000110
00000000
00000001
00001000
00000000
00000000
00000110
00000000
,
00001001
00000000
00000001
00001000
00000000
00001000
00000001
00000100
,
00001000
00000000
00010000
00000000
01000000
00000000
10000000
00010000
,
00100000
00000000
11000000
00000000
00100000
01000000
00100000
10000000
,
01000000
01000000
00010000
00001000
,
00001000
00000100
00000001
00000000
00001000
00000000
00001000
00000001
,
00001000
00000000
00000010
00000000
00000100
00000000
00000001
00000010
,
00001000
00010000
00100000
00100000
,
01000000
00000000
00010000
00000000
10000000
00010000
01000000
00000000
,
10010000
00000000
10000000
00010000
00000000
00010000
10000000
01000000
,
00010000
00000000
00001000
00000000
00000100
00000000
00000001
00001000
,
00000010
00000000
00000101
00000000
00000010
00000100
00000010
00000001
,
00000100
00000100
00001000
00010000
,
00010000
01000000
10000000
00000000
00010000
00000000
00010000
10000000
,
00010000
00000000
00100000
00000000
01000000
00000000
10000000
00100000
,
02000000
00010000
00010000
03010000
,
11000000
00100000
00010000
00011000
,
00010100
00000000
00001000
00000000
00000100
00000000
00000001
00001000
,
00000001
00000000
00000001
00000000
00000001
00000010
00000001
00000100
,
00000001
00000000
00001000
00000000
00000010
00000100
00001000
00010000
,
01000000
00100000
00010000
10000000
01000000
10000000
00010000
01000000
,
00020000
00000000
00000000
00030000
;

//---------------dance-single - ----------------
#NOTEDATA:;
#CHARTNAME:;
#STEPSTYPE:dance-single;
#DESCRIPTION:;
#CHARTSTYLE:;
#DIFFICULTY:Challenge;
#METER:7;
#RADARVALUES:0.160532,0.248730,0.088832,0.031091,0.059962,253.000000,233.000000,20.000000,7.000000,0.000000,0.000000,0.000000,0.000000,0.000000,0.160532,0.248730,0.088832,0.031091,0.059962,253.000000,233.000000,20.000000,7.000000,0.000000,0.000000,0.000000,0.000000,0.000000;
#CREDIT:;
#DISPLAYBPM:138.000000;
#NOTES:
0000
0000
0000
0000
,
0000
0000
0000
0000
,
0000
0000
0000
0000
,
0000
0000
0000
0000
,
0000
0000
0000
0000
,
0000
0000
0000
0000
,
0000
0000
0000
0000
,
0000
0000
0000
0000
,
2002
0000
0000
0000
,
0000
3003
0000
0000
,
0001
0000
0000
0000
0001
0000
0000
0000
0010
0000
0000
0010
0000
0000
1000
0000
,
0100
0000
0000
0000
,
1001
0000
0000
0000
0001
0000
0000
0000
1000
0000
0000
1000
0000
0000
1000
0000
,
0010
0000
0000
0000
,
1000
0000
0000
0000
1000
0000
0000
0000
0001
0000
0000
0001
0000
0000
0001
0000
,
0010
0000
0100
0000
0010
0000
0100
0000
0010
0000
0100
1000
0000
0001
1000
0001
,
1000
0000
0010
0000
0100
0000
0010
0000
0100
0000
0010
1000
0000
0001
1000
0000
,
0010
0100
0001
1000
,
0010
0001
0100
1000
,
0010
0000
0000
0000
0100
0000
0001
2000
0000
0000
0000
0000
3001
0000
0000
0000
,
0010
0100
1000
0010
,
0100
0000
0000
0000
0001
0000
1000
0002
0000
0000
0000
0000
0103
0000
0000
0000
,
0000
0010
0000
1000
0000
0000
0000
0010
0000
1000
0000
0000
,
0001
0100
1000
0100
,
0001
1000
0100
0010
,
0001
0101
0100
0110
,
0010
1010
1000
1100
,
0100
0000
0000
0000
0110
0000
0010
0002
0000
0000
0000
0000
0103
0000
0000
0000
,
0010
0000
0000
0000
1001
0000
0000
0000
0100
0000
0000
0000
0110
0000
0010
1000
,
0001
0011
0100
1100
,
0000
0010
0000
0001
0000
0000
0000
0010
0000
0001
0000
0000
,
0100
0101
0010
1010
,
0100
0010
0100
0010
0100
0010
0100
0010
,
1000
1000
0001
0100
1000
1000
0001
0100
,
1000
1000
0001
0101
0000
0000
0110
0000
,
1000
0000
0000
0000
1000
0000
0000
0000
0001
0000
0000
0001
0000
0000
0010
0000
,
0100
0000
0000
0000
0100
0000
0000
0000
0010
0000
0000
0010
0000
0000
0001
0000
,
1000
0000
0000
0000
1000
0000
0000
0000
0010
0000
0000
0010
0000
0000
0001
0000
,
0100
0000
0000
0000
0100
0000
0000
0000
1000
0000
0000
1000
0000
0000
0001
0000
,
0100
0000
0000
0000
0100
0000
0000
0000
0010
0000
0000
0010
0000
0000
1000
0000
,
0001
0000
0000
0000
0001
0000
0000
0000
1000
0000
0000
1000
0000
0000
0100
0000
,
0010
0000
0000
0000
0010
0000
0000
0000
0100
0000
0000
0100
0000
0000
0001
0000
,
0100
0000
1000
0000
0010
0100
1000
0001
,
0100
0000
0100
0000
1000
0100
1000
0100
,
0010
0000
0010
0000
0001
0010
0001
0010
,
0100
0000
0100
0000
1000
0001
1000
0001
,
0100
0000
0100
0000
0010
1000
0010
1000
,
0001
0000
0001
0000
0010
0100
0010
0100
,
1000
0000
1000
0000
0100
0010
0100
0010
,
0001
0001
1000
0010
,
1000
0000
1000
0000
0001
0000
0001
0000
0100
0000
0100
0000
0010
0100
0010
0000
,
1000
0000
0000
0000
1000
0000
0000
0000
0001
0000
0000
0100
0000
0000
0010
0000
,
1000
0000
0000
0000
1000
0000
0000
0000
0100
0000
0000
0010
0000
0000
0001
0000
,
0100
0000
0000
0000
0100
0000
0000
0000
0010
0000
0000
1000
0000
0000
0100
0000
,
0101
1100
0110
0011
,
2002
0000
0000
0000
,
3003
0000
0000
0000
;
