#VERSION:0.83;
#TITLE:Heartless [prod.quintuple];
#SUBTITLE:;
#ARTIST:Dancing Monkeys Project;
#TITLETRANSLIT:;
#SUBTITLETRANSLIT:;
#ARTISTTRANSLIT:;
#GENRE:;
#ORIGIN:;
#CREDIT:Gorilla v1.1.3 (Dancing Monkeys v1.06);
#BANNER:d4m49ll-156708aa-751a-4395-b0ce-297f1eaf9f23.png;
#BACKGROUND:sora_vs_roxas__kingdom_hearts2___chrisarts__by_arcanekeyblade5_df1x1g7-fullview.png;
#PREVIEWVID:;
#JACKET:;
#CDIMAGE:;
#DISCIMAGE:;
#LYRICSPATH:;
#CDTITLE:;
#MUSIC:Heartless [prod.quintuple].mp3;
#OFFSET:-0.044444;
#SAMPLESTART:35.461678;
#SAMPLELENGTH:12.000000;
#SELECTABLE:YES;
#BPMS:0.000=169.409;
#STOPS:;
#DELAYS:;
#WARPS:;
#TIMESIGNATURES:0.000=4=4;
#TICKCOUNTS:0.000=4;
#COMBOS:0.000=1;
#SPEEDS:0.000=1.000=0.000=0;
#SCROLLS:0.000=1.000;
#FAKES:;
#LABELS:0.000=Song Start;
#BGCHANGES:;
#KEYSOUNDS:;
#ATTACKS:
;

//---------------dance-single - Basic----------------
#NOTEDATA:;
#CHARTNAME:Basic;
#STEPSTYPE:dance-single;
#DESCRIPTION:Basic;
#CHARTSTYLE:;
#DIFFICULTY:Easy;
#METER:4;
#RADARVALUES:0.247235,0.315016,0.000000,0.213900,0.000000,178.000000,178.000000,0.000000,22.000000,0.000000,0.000000,0.000000,0.000000,0.000000,0.247235,0.315016,0.000000,0.213900,0.000000,178.000000,178.000000,0.000000,22.000000,0.000000,0.000000,0.000000,0.000000,0.000000;
#CREDIT:Basic;
#NOTES:
// measure 0
2000
0000
3000
0020
,  // measure 1
0000
0000
0000
0030
,  // measure 2
0200
0000
0000
0300
,  // measure 3
0002
0000
0000
0003
,  // measure 4
0200
0000
0000
0300
,  // measure 5
0020
0000
0000
0030
,  // measure 6
2000
0000
0000
3000
,  // measure 7
0020
0000
0000
0030
,  // measure 8
0002
0000
0000
0003
,  // measure 9
0010
0010
0000
0000
,  // measure 10
0200
0000
0000
0000
,  // measure 11
0000
0000
0000
0000
,  // measure 12
0300
0002
0000
0000
,  // measure 13
0000
0000
0000
0003
,  // measure 14
0200
0000
0000
0000
,  // measure 15
0000
0000
0300
0000
,  // measure 16
0001
0010
1000
0010
,  // measure 17
1000
0001
0010
0100
,  // measure 18
1000
0001
0010
0100
,  // measure 19
1000
0001
1000
0010
,  // measure 20
1000
0001
0010
0100
,  // measure 21
1000
0001
0100
0010
,  // measure 22
1000
0001
0100
0010
,  // measure 23
1000
0001
0010
0100
,  // measure 24
0001
0001
1000
1000
,  // measure 25
0100
0001
0100
0010
,  // measure 26
0001
1000
0100
0010
,  // measure 27
1000
0001
0010
0100
,  // measure 28
1000
0001
0100
0010
,  // measure 29
0001
1000
0100
0010
,  // measure 30
1000
0001
0100
0010
,  // measure 31
1000
0001
0100
0001
,  // measure 32
0200
0000
0000
0000
,  // measure 33
0000
0000
0000
0300
,  // measure 34
0001
0001
0100
0010
,  // measure 35
1000
0001
0010
0100
,  // measure 36
1000
0001
0100
0010
,  // measure 37
1000
0001
0010
0100
,  // measure 38
1000
0001
0100
0010
,  // measure 39
0001
1000
0010
0100
,  // measure 40
1000
0001
1000
0010
,  // measure 41
1000
0001
0010
0100
,  // measure 42
0010
0001
1000
0010
,  // measure 43
0001
0100
0001
0100
,  // measure 44
0010
0001
0100
0010
,  // measure 45
1000
0001
0010
0100
,  // measure 46
1000
0001
0100
0010
,  // measure 47
0100
0001
0010
0100
,  // measure 48
2000
0000
0000
0000
,  // measure 49
0000
0000
3000
0000
,  // measure 50
0002
0000
0000
0000
,  // measure 51
0000
0003
0000
0000
,  // measure 52
0020
0000
0000
0030
,  // measure 53
0000
1000
0100
0000
,  // measure 54
0020
0000
0000
0000
,  // measure 55
0030
0000
0000
0000
,  // measure 56
0002
0000
0003
0000
,  // measure 57
0000
0000
0000
2000
,  // measure 58
0000
0000
0000
3000
,  // measure 59
1000
0100
0000
0000
,  // measure 60
1000
0100
1000
0000
,  // measure 61
0000
1000
0010
0000
,  // measure 62
0200
0000
0000
0300
,  // measure 63
0010
1000
0010
0100
,  // measure 64
0001
0010
0100
0010
,  // measure 65
1000
0010
0100
0001
,  // measure 66
0010
0100
0001
0010
,  // measure 67
1000
0010
0100
0001
,  // measure 68
0010
0100
1000
0010
,  // measure 69
0100
0002
0000
0000
,  // measure 70
0003
0200
0000
0000
,  // measure 71
0000
0000
0000
0000
,  // measure 72
0300
0000
0000
0000
;

//---------------dance-single - Standard----------------
#NOTEDATA:;
#CHARTNAME:Standard;
#STEPSTYPE:dance-single;
#DESCRIPTION:Standard;
#CHARTSTYLE:;
#DIFFICULTY:Medium;
#METER:5;
#RADARVALUES:0.295848,0.423667,0.272236,0.009723,0.000000,213.000000,185.000000,28.000000,1.000000,0.000000,0.000000,0.000000,0.000000,0.000000,0.295848,0.423667,0.272236,0.009723,0.000000,213.000000,185.000000,28.000000,1.000000,0.000000,0.000000,0.000000,0.000000,0.000000;
#CREDIT:Standard;
#NOTES:
0000
0000
1000
0000
0000
0000
0000
0000
,
0000
0000
0001
0000
0000
0000
0000
0000
,
0000
0000
0001
0000
0000
0000
0000
0000
,
0000
0000
1000
0000
0000
0000
0000
0000
,
0000
0000
1000
0000
0000
0000
0000
0000
,
0000
0000
1000
0000
0000
0000
0000
0000
,
0000
0000
0001
0000
0000
0000
0000
0000
,
0000
0000
1000
0000
0000
0000
0000
0000
,
2000
0000
0000
0000
0000
0000
0000
0000
,
0000
0000
0000
0000
0000
0000
0000
0000
,
0000
0000
1000
0000
0000
0000
0000
0000
,
0000
0000
0000
0000
0000
0000
0000
0000
,
0000
0000
0000
0000
0000
0000
0000
0000
,
0000
0000
0000
0000
0000
0000
0000
0000
,
0000
0000
1000
0000
0000
0000
0000
0000
,
0000
0000
0000
0000
0000
0000
0000
0000
,
3000
0000
1000
0000
0010
0010
0001
0000
,
1010
0000
0001
0000
0010
0010
1000
0000
,
1100
0000
0001
0000
0100
0100
1000
0000
,
1010
0000
0001
0000
0010
0010
1000
0000
,
0101
0000
1000
0000
0100
0100
0001
0000
,
1010
0000
0001
0000
0010
0010
1000
0000
,
1010
0000
0001
0000
0010
0010
1000
0000
,
0011
0000
1000
0000
0010
0010
0001
0000
,
0101
0000
1000
0000
0100
0100
0001
0000
,
1010
0000
0001
0000
0010
0010
1000
0000
,
1010
0000
0001
0000
0010
0010
1000
0000
,
0011
0000
1000
0000
0010
0010
0001
0000
,
1100
0000
0001
0000
0100
0100
1000
0000
,
1100
0000
0001
0000
0100
0100
1000
0000
,
1010
0000
0001
0000
0010
0010
1000
0000
,
1010
0000
0001
0000
0010
0010
0200
0000
,
0000
0000
0000
0000
0000
0000
0100
0000
,
0000
0000
0000
0000
0000
0000
0000
0000
,
0300
0000
1000
0000
0010
0010
0001
0000
,
0110
0000
0001
0000
1000
0001
0010
0000
,
0011
0000
1000
0000
0010
0010
0001
0000
,
0110
0000
0001
0000
1000
0001
0010
0000
,
0011
0000
1000
0000
0010
0010
0001
0000
,
0110
0000
0001
0000
1000
0001
0010
0000
,
0011
0000
1000
0000
0010
0010
0001
0000
,
0110
0000
0001
0000
1000
0001
0010
0000
,
0011
0000
1000
0000
0010
0010
0001
0000
,
0110
0000
0001
0000
1000
0001
0010
0000
,
0011
0000
1000
0000
0010
0010
0001
0000
,
0110
0000
0001
0000
1000
0001
0010
0000
,
0011
0000
1000
0000
0010
0010
0001
0000
,
0110
0000
0001
0000
1000
0001
0010
0100
,
0000
0000
0001
0000
0000
0000
0000
0000
,
0000
0000
0000
0000
0001
0000
0000
0000
,
0200
0000
0000
0000
0000
0000
0000
0000
,
0000
0000
1000
0000
0000
0000
0000
0000
,
0000
0000
0001
0000
0000
0000
0000
0000
,
0000
0000
1000
0000
0000
0000
0000
0000
,
0000
0000
1000
0000
0000
0000
0000
0000
,
0000
0000
1000
0000
0000
0000
0000
0000
,
0300
0000
1000
0000
0010
0010
0001
0100
,
0001
0000
0100
0000
0010
1000
0000
0000
,
1000
0000
0001
0000
0010
0000
0000
0000
,
0001
0000
1000
0000
0010
0000
0000
0000
,
0000
0000
0000
0000
0001
0000
0000
0000
,
0000
0000
0000
0000
0001
0000
0000
0000
,
0000
0000
1000
0000
0000
0000
0000
0000
,
;

//---------------dance-single - Heavy----------------
#NOTEDATA:;
#CHARTNAME:Heavy;
#STEPSTYPE:dance-single;
#DESCRIPTION:Heavy;
#CHARTSTYLE:;
#DIFFICULTY:Hard;
#METER:6;
#RADARVALUES:0.358351,0.484191,0.272236,0.019445,0.000000,258.000000,230.000000,28.000000,2.000000,0.000000,0.000000,0.000000,0.000000,0.000000,0.358351,0.484191,0.272236,0.019445,0.000000,258.000000,230.000000,28.000000,2.000000,0.000000,0.000000,0.000000,0.000000,0.000000;
#CREDIT:Heavy;
#NOTES:
0000
0000
1000
0000
0000
0000
0000
0000
,
0000
0000
1000
0000
0000
0000
0000
0000
,
0000
0000
1000
0000
0000
0000
0000
0000
,
0000
0000
0001
0000
0000
0000
0000
0000
,
0000
0000
0001
0000
0000
0000
0000
0000
,
0000
0000
1000
0000
0000
0000
0000
0000
,
0000
0000
1000
0000
0000
0000
0000
0000
,
0000
0000
1000
0000
0000
0000
0000
0000
,
0200
0000
0000
0000
0000
0000
1000
0000
,
0000
0000
0000
0000
0000
0000
1000
0000
,
0000
0000
1000
0000
0000
0000
0000
0000
,
0000
0000
0000
0000
0000
0000
1000
0000
,
0000
0000
0000
0000
0000
0000
0001
0000
,
0000
0000
0000
0000
0000
0000
1000
0000
,
0000
0000
1000
0000
0000
0000
0000
0000
,
0000
0000
0000
0000
0000
0000
1000
0000
,
0300
0000
0001
0100
0001
0001
0100
0000
,
0110
0000
1000
0100
1000
1000
0100
0000
,
0110
0000
0001
0100
0001
0001
0100
0000
,
0110
0000
1000
0010
1000
1000
0010
0000
,
0110
0000
1000
0010
1000
1000
0010
0000
,
0110
0000
0001
0100
0001
0001
0100
0000
,
0110
0000
1000
0100
1000
1000
0100
0000
,
0110
0000
1000
0100
1000
1000
0100
0000
,
0110
0000
0001
0010
0001
0001
0010
0000
,
0110
0000
0001
0100
0001
0001
0100
0000
,
0110
0000
0001
0010
0001
0001
0010
0000
,
0110
0000
1000
0010
1000
1000
0010
0000
,
0110
0000
1000
0010
1000
1000
0010
0000
,
0110
0000
1000
0100
1000
1000
0100
0000
,
0110
0000
1000
0010
1000
1000
0010
0000
,
0110
0000
0001
0010
0001
0001
0020
0000
,
0000
0000
1000
0000
0000
0000
1000
0000
,
0000
0000
0000
0000
0000
0000
1000
0000
,
0030
0000
0001
0100
0001
0001
0100
0000
,
0101
0000
1000
0100
1000
0010
1000
0000
,
0110
0000
0001
0100
0001
0001
0100
0000
,
0101
0000
1000
0100
1000
0010
1000
0000
,
0110
0000
0001
0100
0001
0001
0100
0000
,
0101
0000
1000
0100
1000
0010
1000
0000
,
0110
0000
0001
0100
0001
0001
0100
0000
,
0101
0000
1000
0100
1000
0010
1000
0000
,
0110
0000
0001
0100
0001
0001
0100
0000
,
0101
0000
1000
0100
1000
0010
1000
0000
,
0110
0000
0001
0100
0001
0001
0100
0000
,
0101
0000
1000
0100
1000
0010
1000
0000
,
0110
0000
0001
0100
0001
0001
0100
0000
,
0101
0000
1000
0100
1000
0010
1000
0100
,
0000
0000
0001
0000
0000
0000
0000
0000
,
0000
0000
0000
0000
1000
0000
1000
0000
,
2000
0000
0000
0000
0000
0000
1000
0000
,
0000
0000
1000
0000
0000
0000
0000
0000
,
0000
0000
0001
0000
0000
0000
0000
0000
,
0000
0000
1000
0000
0000
0000
0000
0000
,
0000
0000
1000
0000
0000
0000
0000
0000
,
0000
0000
1000
0000
0000
0000
0000
0000
,
3000
0000
0001
0100
0001
0001
0100
0001
,
1000
0000
0100
0000
0010
1000
0000
0010
,
0001
0000
1000
0000
0100
0000
0000
0000
,
1000
0000
0001
0000
0010
0000
0000
0000
,
0000
0000
0000
0000
1000
0000
1000
0000
,
0000
0000
0000
0000
0001
0000
0001
0000
,
0000
0000
1000
0000
0000
0000
0000
0000
,
;
