#VERSION:0.83;
#TITLE:Lazy Town Have You Ever Music Video;
#SUBTITLE:;
#ARTIST:Dancing Monkeys Project;
#TITLETRANSLIT:;
#SUBTITLETRANSLIT:;
#ARTISTTRANSLIT:;
#GENRE:;
#ORIGIN:;
#CREDIT:Gorilla v1.1.3 (Dancing Monkeys v1.06);
#BANNER:MV5BODBlODc1ZTQtYWMyNS00OWQ0LWE4ZDctYWY3M2ZiMjEyNzBjXkEyXkFqcGdeQXVyMTA0MTM5NjI2._V1_FMjpg_UX1000_.jpg;
#BACKGROUND:8cafc5e39dbdb7f0bbdf4524732dd55aa0da10947b9a44a83fbf6c607b7edb8e.jpg;
#PREVIEWVID:;
#JACKET:;
#CDIMAGE:;
#DISCIMAGE:;
#LYRICSPATH:;
#CDTITLE:;
#MUSIC:Lazy Town Have You Ever Music Video.mp3;
#OFFSET:-0.551020;
#SAMPLESTART:41.339775;
#SAMPLELENGTH:12.000000;
#SELECTABLE:YES;
#BPMS:0.000=152.983;
#STOPS:31.000=1.569;
#DELAYS:;
#WARPS:;
#TIMESIGNATURES:0.000=4=4;
#TICKCOUNTS:0.000=4;
#COMBOS:0.000=1;
#SPEEDS:0.000=1.000=0.000=0;
#SCROLLS:0.000=1.000;
#FAKES:;
#LABELS:0.000=Song Start;
#BGCHANGES:;
#KEYSOUNDS:;
#ATTACKS:
;

//---------------dance-single - Basic----------------
#NOTEDATA:;
#CHARTNAME:Basic;
#STEPSTYPE:dance-single;
#DESCRIPTION:Basic;
#CHARTSTYLE:;
#DIFFICULTY:Easy;
#METER:4;
#RADARVALUES:0.397166,0.447115,0.463361,0.045206,0.000000,246.000000,205.000000,41.000000,4.000000,0.000000,0.000000,0.000000,0.000000,0.000000,0.397166,0.447115,0.463361,0.045206,0.000000,246.000000,205.000000,41.000000,4.000000,0.000000,0.000000,0.000000,0.000000,0.000000;
#CREDIT:Basic;
#NOTES:
// measure 0
0000
1000
1000
0001
,  // measure 1
0001
1000
1000
0010
,  // measure 2
0100
0010
0100
0001
,  // measure 3
0001
1000
1000
0010
,  // measure 4
0100
0010
0100
0001
,  // measure 5
0001
1000
1000
0010
,  // measure 6
0100
0010
0100
1001
,  // measure 7
2002
0000
0000
3003
,  // measure 8
0001
1000
0100
0010
,  // measure 9
1001
0100
0001
0100
,  // measure 10
0001
1001
0100
0010
,  // measure 11
1000
0100
1001
0100
,  // measure 12
1001
0010
1000
0010
,  // measure 13
1001
0100
1001
0010
,  // measure 14
1000
0001
0110
1000
,  // measure 15
0001
0100
0001
0100
,  // measure 16
0010
0100
0010
1001
,  // measure 17
1001
0100
0010
1000
,  // measure 18
1000
0010
0100
0001
,  // measure 19
1000
0001
1000
0001
,  // measure 20
1000
0001
0110
1001
,  // measure 21
1001
0100
0100
0010
,  // measure 22
0010
1000
0001
1000
,  // measure 23
0001
1000
0001
1000
,  // measure 24
0001
0010
0100
0010
,  // measure 25
1000
0001
1000
0110
,  // measure 26
1001
0010
0100
0010
,  // measure 27
1001
0010
0100
0010
,  // measure 28
0100
0010
0100
1001
,  // measure 29
0010
0100
1001
0010
,  // measure 30
0100
1000
0100
0010
,  // measure 31
0001
1000
0100
0010
,  // measure 32
0001
1000
0100
0010
,  // measure 33
0001
0010
0100
1000
,  // measure 34
0001
1000
0010
0100
,  // measure 35
1001
0100
0010
1001
,  // measure 36
1001
0110
0001
1000
,  // measure 37
0001
1000
0001
1000
,  // measure 38
0001
0001
1000
1000
,  // measure 39
0010
0010
0100
0100
,  // measure 40
1001
0110
1001
0100
,  // measure 41
0010
0100
0010
0100
,  // measure 42
0010
1000
0001
1000
,  // measure 43
0001
1000
0001
1001
,  // measure 44
0110
1001
0110
1001
,  // measure 45
0110
1000
0001
0100
,  // measure 46
0010
0100
0010
0100
,  // measure 47
0010
0100
0010
1001
,  // measure 48
0010
0100
0010
1001
,  // measure 49
1001
0010
0100
1001
,  // measure 50
0110
1001
0010
0100
,  // measure 51
0010
0100
1001
0110
,  // measure 52
2002
0000
0000
3003
;

//---------------dance-single - Standard----------------
#NOTEDATA:;
#CHARTNAME:Standard;
#STEPSTYPE:dance-single;
#DESCRIPTION:Standard;
#CHARTSTYLE:;
#DIFFICULTY:Medium;
#METER:5;
#RADARVALUES:0.297067,0.329438,0.022603,0.022603,0.000000,184.000000,182.000000,2.000000,2.000000,0.000000,0.000000,0.000000,0.000000,0.000000,0.297067,0.329438,0.022603,0.022603,0.000000,184.000000,182.000000,2.000000,2.000000,0.000000,0.000000,0.000000,0.000000,0.000000;
#CREDIT:Standard;
#NOTES:
0000
0000
0000
0000
0000
0000
0001
0000
,
0001
0000
0010
0000
0000
0000
0000
0000
,
0000
0000
0000
0000
0000
0000
0001
0000
,
0001
0000
0010
0000
0000
0000
0000
0000
,
0000
0000
0000
0000
0000
0000
0001
0000
,
0001
0000
0010
0000
0000
0000
0000
0000
,
0000
0000
0000
0000
0000
0000
0001
0000
,
2000
0000
0000
0000
0000
0000
3000
0000
,
1000
0000
0100
0000
0010
0000
0001
0000
,
1000
0000
0001
0000
0100
0000
0010
0000
,
1000
0000
0100
0000
0010
0000
0001
0000
,
1000
0000
0001
0000
0100
0000
0010
0000
,
0001
0000
1000
0000
0001
0000
0100
0000
,
0001
0000
1000
0000
0001
0000
0010
0000
,
1000
0000
0010
0000
1000
0000
0001
0000
,
1000
0000
0001
0000
0100
0000
0010
0000
,
0000
0000
0000
0000
0000
0001
0100
0000
,
0001
0000
0100
0000
0010
0000
0100
0000
,
1000
0000
0010
1000
0001
0000
0010
0000
,
1000
0000
0001
0000
0100
0000
0010
0000
,
1000
0000
0001
0000
1000
0000
0100
0000
,
1000
0000
0010
0000
1000
0000
0001
0000
,
0001
0100
0001
0000
1000
0000
0100
0000
,
1000
0000
0100
0000
0010
0000
0001
0000
,
1000
0000
0100
0000
0010
0000
0001
0000
,
1000
0000
0010
0000
0000
0000
1010
0000
,
1000
0000
0100
0000
0010
0000
0001
0000
,
1000
0000
0100
0000
0010
0000
0001
0000
,
1000
0000
0010
0000
0100
0000
0001
0000
,
0001
0000
1000
0000
0001
0000
0010
0000
,
1000
0000
0100
0000
0010
0000
0001
0000
,
1000
0000
0100
0000
0010
0000
0001
0000
,
1000
0000
0010
0000
0100
0000
0001
0000
,
1000
0000
0001
0000
0100
0000
0010
0000
,
0000
0000
0000
0000
0000
0001
0100
0000
,
0001
0000
0100
0000
0010
0000
0100
0000
,
0001
0100
0001
0000
1000
0000
0100
0000
,
1000
0000
0001
0000
0100
0000
0010
0000
,
1000
0000
0001
0000
1000
0000
0100
0000
,
1000
0000
0010
0000
1000
0000
0001
0000
,
0001
0100
0001
0000
1000
0000
0100
0000
,
1000
0000
0001
0000
0100
0000
0010
0000
,
0000
0000
0001
0000
0010
0000
0200
0000
,
0000
0000
0000
0000
1000
0000
0101
0000
,
0001
0100
0001
0000
1000
0000
0100
0000
,
1000
0000
0001
0000
0100
0000
0010
0000
,
1000
0000
0001
0000
1000
0000
0100
0000
,
1000
0000
0010
0000
1000
0000
0001
0000
,
0001
0100
0001
0000
1000
0000
0100
0000
,
1000
0000
0001
0000
0100
0000
0010
0000
,
0000
0000
0001
0000
0000
0000
0010
0000
,
0000
0000
0001
0000
0010
0000
0200
0000
,
2000
0000
0000
0000
0000
0000
3000
0000
,
0001
0000
0000
0000
0000
0000
0000
0000
,
;

//---------------dance-single - Heavy----------------
#NOTEDATA:;
#CHARTNAME:Heavy;
#STEPSTYPE:dance-single;
#DESCRIPTION:Heavy;
#CHARTSTYLE:;
#DIFFICULTY:Hard;
#METER:6;
#RADARVALUES:0.350346,0.389336,0.033904,0.022603,0.000000,217.000000,214.000000,3.000000,2.000000,0.000000,0.000000,0.000000,0.000000,0.000000,0.350346,0.389336,0.033904,0.022603,0.000000,217.000000,214.000000,3.000000,2.000000,0.000000,0.000000,0.000000,0.000000,0.000000;
#CREDIT:Heavy;
#NOTES:
0000
0000
0000
0000
1000
0000
0001
0000
,
1000
0000
0001
0000
0000
0000
0000
0000
,
0000
0000
0000
0000
1000
0000
0001
0000
,
1000
0000
0001
0000
0000
0000
0000
0000
,
0000
0000
0000
0000
1000
0000
0001
0000
,
1000
0000
0001
0000
0000
0000
0000
0000
,
0000
0000
0000
0000
1000
0000
0001
0000
,
2000
0000
0000
0000
0000
0000
3000
0000
,
0001
0000
0100
0010
0100
0000
0001
0000
,
1000
0000
0100
0000
1000
0000
0001
0000
,
0001
0000
0100
0010
0100
0000
0001
0000
,
1000
0000
0100
0000
1000
0000
0001
0000
,
1000
0000
0010
0000
0100
0001
0100
0000
,
1000
0100
1000
0000
0001
0000
0100
0000
,
0001
0000
0100
0001
1000
0000
0100
0000
,
1000
0000
0100
0000
1000
0000
0001
0000
,
0000
0000
0000
0000
0000
0001
0100
0000
,
0001
0000
0010
0000
0100
0000
0010
0100
,
0001
0000
0100
0010
1000
0000
0001
0000
,
1000
0000
0100
0000
1000
0000
0001
0000
,
0001
0000
0010
0000
0100
0000
1000
0010
,
0001
0000
0100
0001
1000
0000
0100
0000
,
0001
0100
0001
1000
0010
0000
0100
0000
,
1000
0010
1000
0000
0001
0000
0100
0000
,
0001
0000
0100
0010
0100
0000
0001
0000
,
0001
0000
0100
0000
0000
0000
0011
0000
,
0001
0000
0100
0010
0100
0000
0001
0000
,
1000
0010
1000
0000
0001
0000
0100
0000
,
0001
0000
0100
0000
0001
0000
0100
0010
,
1000
0100
1000
0000
0001
0000
0100
0000
,
0001
0000
0100
0010
0100
0000
0001
0000
,
1000
0010
1000
0000
0001
0000
0100
0000
,
0001
0000
0100
0000
0001
0000
0100
0010
,
1000
0000
0100
0000
1000
0000
0001
0000
,
0000
0000
0000
0000
0000
0001
0100
0000
,
0001
0000
0010
0000
0100
0000
0010
0100
,
0001
0100
0001
1000
0010
0000
0100
0000
,
1000
0000
0100
0000
1000
0000
0001
0000
,
0001
0000
0010
0000
0100
0000
1000
0010
,
0001
0000
0100
0001
1000
0000
0100
0000
,
0001
0100
0001
1000
0010
0000
0100
0000
,
1000
0000
0100
0000
1000
0000
0001
0000
,
0000
0000
1000
0000
0100
0000
0020
0000
,
0000
0000
0000
0000
0001
0000
1100
0000
,
0001
0100
0001
1000
0010
0000
0100
0000
,
1000
0000
0100
0000
1000
0000
0001
0000
,
0001
0000
0010
0000
0100
0000
1000
0010
,
0001
0000
0100
0001
1000
0000
0100
0000
,
0001
0100
0001
1000
0010
0000
0100
0000
,
1000
0000
0100
0000
1000
0000
0001
0000
,
0001
0000
0010
0000
0000
0000
0101
0000
,
0000
0000
1000
0000
0100
0000
0020
0000
,
2000
0000
0000
0000
0000
0000
3000
0000
,
1000
0000
0000
0000
0000
0000
0000
0000
,
;
