#VERSION:0.83;
#TITLE:HUMBLE.;
#SUBTITLE:;
#ARTIST:Kendrick Lamar;
#TITLETRANSLIT:;
#SUBTITLETRANSLIT:;
#ARTISTTRANSLIT:;
#GENRE:;
#ORIGIN:;
#CREDIT:Gorilla v1.1.3 (Dancing Monkeys v1.06);
#BANNER:;
#BACKGROUND:;
#PREVIEWVID:;
#JACKET:;
#CDIMAGE:;
#DISCIMAGE:;
#LYRICSPATH:;
#CDTITLE:;
#MUSIC:HUMBLE..mp3;
#OFFSET:-1.000726;
#SAMPLESTART:41.012066;
#SAMPLELENGTH:12.000000;
#SELECTABLE:YES;
#BPMS:0.000=149.000;
#STOPS:;
#DELAYS:;
#WARPS:;
#TIMESIGNATURES:0.000=4=4;
#TICKCOUNTS:0.000=4;
#COMBOS:0.000=1;
#SPEEDS:0.000=1.000=0.000=0;
#SCROLLS:0.000=1.000;
#FAKES:;
#LABELS:0.000=Song Start;
#BGCHANGES:;
#KEYSOUNDS:;
#ATTACKS:
;

//---------------dance-single - Basic----------------
#NOTEDATA:;
#CHARTNAME:Basic;
#STEPSTYPE:dance-single;
#DESCRIPTION:Basic;
#CHARTSTYLE:;
#DIFFICULTY:Easy;
#METER:3;
#RADARVALUES:0.115388,0.128027,0.000000,0.000000,0.000000,97.000000,97.000000,0.000000,0.000000,0.000000,0.000000,0.000000,0.000000,0.000000,0.115388,0.128027,0.000000,0.000000,0.000000,97.000000,97.000000,0.000000,0.000000,0.000000,0.000000,0.000000,0.000000,0.000000;
#CREDIT:Basic;
#NOTES:
// measure 0
0000
0001
0000
0001
,  // measure 1
0000
0100
0000
0100
,  // measure 2
0000
0010
0000
0000
,  // measure 3
0000
1000
0000
0010
,  // measure 4
0010
0000
1000
0000
,  // measure 5
1000
0000
0001
0000
,  // measure 6
0001
0000
0010
0000
,  // measure 7
1000
0000
0001
0000
,  // measure 8
0001
0000
0010
0000
,  // measure 9
1000
0000
0001
0000
,  // measure 10
0001
0000
0010
0000
,  // measure 11
1000
0000
0001
0000
,  // measure 12
0001
0000
0010
0000
,  // measure 13
1000
0000
0001
0000
,  // measure 14
0001
0000
0010
0000
,  // measure 15
1000
0000
0001
0000
,  // measure 16
0001
0000
0001
0000
,  // measure 17
1000
0000
0001
0000
,  // measure 18
0001
0000
0010
0000
,  // measure 19
1000
0000
0001
0000
,  // measure 20
0001
0000
0001
0000
,  // measure 21
1000
0000
0001
0000
,  // measure 22
0001
0000
0010
0000
,  // measure 23
1000
0000
0010
0000
,  // measure 24
0001
0001
0000
1000
,  // measure 25
0000
0001
0001
0000
,  // measure 26
0001
0000
0000
1000
,  // measure 27
1000
0000
0001
0000
,  // measure 28
0100
0000
0000
0000
,  // measure 29
0000
0000
0000
0000
,  // measure 30
0001
0000
0010
0000
,  // measure 31
1000
0000
0001
0000
,  // measure 32
0100
0000
0010
0000
,  // measure 33
1000
0000
0001
0000
,  // measure 34
0001
0000
0010
0000
,  // measure 35
1000
0000
0001
0000
,  // measure 36
0001
0000
0001
0000
,  // measure 37
1000
0000
0001
0000
,  // measure 38
1000
0000
0100
0000
,  // measure 39
0010
0000
0001
0000
,  // measure 40
0000
0000
0000
0000
,  // measure 41
0000
0000
0000
0001
,  // measure 42
0000
1000
0000
0010
,  // measure 43
0000
1000
0000
0100
,  // measure 44
0000
0001
0000
0010
,  // measure 45
0000
1000
0000
0100
,  // measure 46
0000
1000
0000
0010
,  // measure 47
0000
0100
0000
0001
,  // measure 48
0000
0100
0000
0001
,  // measure 49
0000
1000
0000
0100
,  // measure 50
0000
1000
0000
0010
,  // measure 51
0000
1000
0000
0000
;
